<svg xmlns="http://www.w3.org/2000/svg">
<defs>
<font horiz-adv-x="2048">
   <font-face font-family="ArialMT" units-per-em="2048" underline-position="-217" underline-thickness="150"/>
   <missing-glyph horiz-adv-x="1536" d="M256,0l0,1280l1024,0l0,-1280M288,32l960,0l0,1216l-960,0z"/>
   <glyph unicode=" " horiz-adv-x="569"/>
   <glyph unicode="!" horiz-adv-x="569" d="M231,364l-55,777l0,325l223,0l0,-325l-52,-777M184,0l0,205l207,0l0,-205z"/>
   <glyph unicode="&quot;" horiz-adv-x="727" d="M144,947l-50,279l0,240l205,0l0,-240l-45,-279M475,947l-49,279l0,240l205,0l0,-240l-48,-279z"/>
   <glyph unicode="#" horiz-adv-x="1139" d="M103,-25l87,426l-169,0l0,149l199,0l74,363l-273,0l0,149l303,0l87,429l150,0l-87,-429l315,0l87,429l151,0l-87,-429l173,0l0,-149l-203,0l-75,-363l278,0l0,-149l-308,0l-87,-426l-150,0l86,426l-314,0l-87,-426M370,550l314,0l75,363l-315,0z"/>
   <glyph unicode="$" horiz-adv-x="1139" d="M510,-211l0,180C420,-20 347,1 291,30C234,59 186,105 145,170C104,235 80,314 73,407l181,34C268,344 293,273 328,228C379,164 439,128 510,121l0,573C436,708 360,737 283,780C226,812 182,856 151,913C120,970 104,1034 104,1106C104,1234 149,1338 240,1417C301,1470 391,1503 510,1515l0,86l106,0l0,-86C721,1505 804,1474 865,1423C944,1358 991,1268 1007,1154l-186,-28C810,1197 788,1251 755,1289C721,1326 675,1351 616,1363l0,-519C707,821 767,804 796,791C852,766 898,736 933,701C968,666 996,624 1015,575C1034,526 1043,474 1043,417C1043,292 1003,188 924,105C845,22 742,-23 616,-29l0,-182M510,1365C440,1354 385,1326 345,1281C304,1236 284,1182 284,1120C284,1059 301,1007 336,966C370,925 428,892 510,867M616,121C686,130 744,160 790,212C835,264 858,328 858,405C858,470 842,523 810,563C777,602 713,638 616,669z"/>
   <glyph unicode="%" horiz-adv-x="1821" d="M119,1114C119,1219 145,1308 198,1381C251,1454 327,1491 427,1491C519,1491 595,1458 656,1393C716,1327 746,1230 746,1103C746,979 716,884 655,817C594,750 518,716 429,716C340,716 267,749 208,815C149,881 119,981 119,1114M432,1367C387,1367 350,1348 321,1309C291,1270 276,1199 276,1096C276,1002 291,936 321,898C351,859 388,840 432,840C477,840 515,859 545,898C574,937 589,1007 589,1110C589,1205 574,1271 544,1310C514,1348 477,1367 432,1367M433,-54l802,1545l146,0l-799,-1545M1067,344C1067,449 1093,539 1146,612C1199,685 1275,721 1376,721C1468,721 1544,688 1605,623C1665,557 1695,460 1695,333C1695,209 1665,114 1604,47C1543,-20 1467,-54 1377,-54C1288,-54 1215,-21 1156,46C1097,112 1067,211 1067,344M1381,597C1336,597 1298,578 1269,539C1239,500 1224,429 1224,326C1224,233 1239,167 1269,128C1299,89 1336,70 1380,70C1426,70 1464,89 1494,128C1523,167 1538,237 1538,340C1538,435 1523,501 1493,540C1463,578 1426,597 1381,597z"/>
   <glyph unicode="&amp;" horiz-adv-x="1366" d="M973,173C914,107 849,58 779,25C709,-8 633,-25 552,-25C402,-25 283,26 195,127C124,210 88,302 88,404C88,495 117,577 176,650C234,723 321,787 437,842C371,918 327,980 305,1027C283,1074 272,1120 272,1164C272,1252 307,1329 376,1394C445,1459 531,1491 636,1491C736,1491 818,1460 882,1399C945,1338 977,1264 977,1178C977,1039 885,920 700,821l263,-335C993,545 1016,613 1033,690l187,-40C1188,522 1145,417 1090,334C1157,245 1234,170 1319,109l-121,-143C1125,13 1050,82 973,173M607,937C685,983 736,1023 759,1058C782,1093 793,1131 793,1173C793,1223 777,1264 746,1296C714,1327 674,1343 627,1343C578,1343 538,1327 506,1296C473,1265 457,1226 457,1181C457,1158 463,1135 475,1110C486,1085 504,1058 527,1030M860,315l-330,409C433,666 367,612 333,563C299,513 282,464 282,415C282,356 306,294 353,230C400,166 467,134 554,134C608,134 664,151 722,185C779,218 825,262 860,315z"/>
   <glyph unicode="'" horiz-adv-x="391" d="M136,947l-46,274l0,245l205,0l0,-245l-48,-274z"/>
   <glyph unicode="(" horiz-adv-x="682" d="M479,-431C380,-306 296,-159 227,9C158,177 124,351 124,531C124,690 150,842 201,987C261,1156 354,1324 479,1491l129,0C527,1352 474,1253 448,1194C407,1102 375,1006 352,906C323,781 309,656 309,530C309,209 409,-111 608,-431z"/>
   <glyph unicode=")" horiz-adv-x="682" d="M253,-431l-129,0C323,-111 423,209 423,530C423,655 409,780 380,903C357,1003 326,1099 285,1191C259,1251 205,1351 124,1491l129,0C378,1324 471,1156 531,987C582,842 608,690 608,531C608,351 574,177 505,9C436,-159 352,-306 253,-431z"/>
   <glyph unicode="*" horiz-adv-x="797" d="M64,1197l46,142C216,1302 293,1269 341,1242C328,1363 322,1446 321,1491l145,0C464,1425 456,1342 443,1243C512,1278 590,1310 679,1339l46,-142C640,1169 557,1150 476,1141C517,1106 574,1043 648,952l-120,-85C489,920 444,991 391,1082C342,988 298,916 261,867l-118,85C220,1047 276,1110 309,1141C223,1158 141,1176 64,1197z"/>
   <glyph unicode="+" horiz-adv-x="1196" d="M513,237l0,402l-399,0l0,168l399,0l0,399l170,0l0,-399l399,0l0,-168l-399,0l0,-402z"/>
   <glyph unicode="," horiz-adv-x="569" d="M182,0l0,205l205,0l0,-205C387,-75 374,-136 347,-182C320,-229 278,-265 220,-290l-50,77C208,-196 236,-172 254,-139C272,-107 282,-61 284,0z"/>
   <glyph unicode="-" horiz-adv-x="682" d="M65,440l0,181l553,0l0,-181z"/>
   <glyph unicode="." horiz-adv-x="569" d="M186,0l0,205l205,0l0,-205z"/>
   <glyph unicode="/" horiz-adv-x="569" d="M0,-25l425,1516l144,0l-424,-1516z"/>
   <glyph unicode="0" horiz-adv-x="1139" d="M85,723C85,896 103,1036 139,1142C174,1247 227,1329 298,1386C368,1443 456,1472 563,1472C642,1472 711,1456 770,1425C829,1393 878,1347 917,1288C956,1228 986,1155 1008,1070C1030,984 1041,868 1041,723C1041,551 1023,412 988,307C953,201 900,119 830,62C759,4 670,-25 563,-25C422,-25 311,26 230,127C133,249 85,448 85,723M270,723C270,482 298,322 355,243C411,163 480,123 563,123C646,123 715,163 772,243C828,323 856,483 856,723C856,964 828,1125 772,1204C715,1283 645,1323 561,1323C478,1323 412,1288 363,1218C301,1129 270,964 270,723z"/>
   <glyph unicode="1" horiz-adv-x="1139" d="M763,0l-180,0l0,1147C540,1106 483,1064 413,1023C342,982 279,951 223,930l0,174C324,1151 412,1209 487,1276C562,1343 616,1409 647,1472l116,0z"/>
   <glyph unicode="2" horiz-adv-x="1139" d="M1031,173l0,-173l-969,0C61,43 68,85 83,125C108,191 147,256 202,320C256,384 334,458 437,542C596,673 704,776 760,853C816,929 844,1001 844,1069C844,1140 819,1201 768,1250C717,1299 650,1323 568,1323C481,1323 412,1297 360,1245C308,1193 282,1121 281,1029l-185,19C109,1186 156,1291 239,1364C322,1436 433,1472 572,1472C713,1472 824,1433 906,1355C988,1277 1029,1180 1029,1065C1029,1006 1017,949 993,892C969,835 929,776 874,713C818,650 725,564 596,455C488,364 419,303 388,271C357,238 332,206 312,173z"/>
   <glyph unicode="3" horiz-adv-x="1139" d="M86,387l180,24C287,309 322,236 372,191C421,146 482,123 553,123C638,123 709,152 768,211C826,270 855,342 855,429C855,512 828,580 774,634C720,687 651,714 568,714C534,714 492,707 441,694l20,158C473,851 483,850 490,850C567,850 636,870 697,910C758,950 789,1012 789,1095C789,1161 767,1216 722,1259C677,1302 620,1324 549,1324C479,1324 421,1302 374,1258C327,1214 297,1148 284,1060l-180,32C126,1213 176,1306 254,1373C332,1439 429,1472 545,1472C625,1472 699,1455 766,1421C833,1386 885,1339 921,1280C956,1221 974,1158 974,1091C974,1028 957,970 923,918C889,866 839,825 772,794C859,774 926,733 974,670C1022,607 1046,528 1046,433C1046,305 999,197 906,108C813,19 695,-26 552,-26C423,-26 317,12 232,89C147,166 98,265 86,387z"/>
   <glyph unicode="4" horiz-adv-x="1139" d="M662,0l0,351l-636,0l0,165l669,950l147,0l0,-950l198,0l0,-165l-198,0l0,-351M662,516l0,661l-459,-661z"/>
   <glyph unicode="5" horiz-adv-x="1139" d="M85,384l189,16C288,308 321,239 372,193C423,146 484,123 556,123C643,123 716,156 776,221C836,286 866,373 866,481C866,584 837,665 780,724C722,783 646,813 553,813C495,813 443,800 396,774C349,747 313,713 286,671l-169,22l142,753l729,0l0,-172l-585,0l-79,-394C412,941 504,972 601,972C729,972 837,928 925,839C1013,750 1057,636 1057,497C1057,364 1018,250 941,153C847,34 719,-25 556,-25C423,-25 314,12 230,87C145,162 97,261 85,384z"/>
   <glyph unicode="6" horiz-adv-x="1139" d="M1019,1107l-179,-14C824,1164 801,1215 772,1247C723,1298 663,1324 592,1324C535,1324 484,1308 441,1276C384,1235 340,1174 307,1095C274,1016 257,903 256,756C299,822 352,871 415,903C478,935 543,951 612,951C732,951 834,907 919,819C1003,730 1045,616 1045,476C1045,384 1025,299 986,220C946,141 891,80 822,38C753,-4 674,-25 586,-25C436,-25 314,30 219,141C124,251 77,433 77,686C77,969 129,1175 234,1304C325,1416 448,1472 603,1472C718,1472 813,1440 887,1375C960,1310 1004,1221 1019,1107M284,475C284,413 297,354 324,297C350,240 387,197 434,168C481,138 531,123 583,123C659,123 724,154 779,215C834,276 861,360 861,465C861,566 834,646 780,705C726,763 658,792 576,792C495,792 426,763 369,705C312,646 284,570 284,475z"/>
   <glyph unicode="7" horiz-adv-x="1139" d="M97,1274l0,173l949,0l0,-140C953,1208 860,1076 769,911C677,746 606,577 556,403C520,280 497,146 487,0l-185,0C304,115 327,255 370,418C413,581 476,739 557,891C638,1042 724,1170 815,1274z"/>
   <glyph unicode="8" horiz-adv-x="1139" d="M362,795C287,822 232,861 196,912C160,963 142,1023 142,1094C142,1201 180,1290 257,1363C334,1436 436,1472 563,1472C691,1472 794,1435 872,1361C950,1286 989,1196 989,1089C989,1021 971,962 936,912C900,861 846,822 773,795C863,766 932,718 979,653C1026,588 1049,510 1049,419C1049,294 1005,188 916,103C827,18 711,-25 566,-25C421,-25 305,18 216,104C127,189 83,296 83,424C83,519 107,599 156,664C204,728 273,772 362,795M326,1100C326,1031 348,974 393,930C438,886 496,864 567,864C636,864 693,886 738,930C782,973 804,1027 804,1090C804,1156 781,1212 736,1257C690,1302 633,1324 565,1324C496,1324 439,1302 394,1258C349,1214 326,1161 326,1100M268,423C268,372 280,322 305,274C329,226 365,189 413,163C461,136 513,123 568,123C654,123 725,151 781,206C837,261 865,332 865,417C865,504 836,575 779,632C721,689 649,717 562,717C477,717 407,689 352,633C296,577 268,507 268,423z"/>
   <glyph unicode="9" horiz-adv-x="1139" d="M112,339l173,16C300,274 328,215 369,178C410,141 463,123 528,123C583,123 632,136 674,161C715,186 749,220 776,263C803,305 825,362 843,434C861,506 870,579 870,654C870,662 870,674 869,690C833,633 784,586 722,551C659,515 592,497 519,497C398,497 295,541 211,629C127,717 85,833 85,977C85,1126 129,1245 217,1336C304,1427 414,1472 546,1472C641,1472 729,1446 808,1395C887,1344 947,1271 988,1176C1029,1081 1049,943 1049,763C1049,576 1029,427 988,316C947,205 887,120 807,62C726,4 632,-25 524,-25C409,-25 316,7 243,71C170,134 127,224 112,339M849,986C849,1089 822,1171 767,1232C712,1293 645,1323 568,1323C488,1323 418,1290 359,1225C300,1160 270,1075 270,971C270,878 298,802 355,744C411,685 480,656 563,656C646,656 715,685 769,744C822,802 849,883 849,986z"/>
   <glyph unicode=":" horiz-adv-x="569" d="M185,857l0,205l205,0l0,-205M185,0l0,205l205,0l0,-205z"/>
   <glyph unicode=";" horiz-adv-x="569" d="M182,857l0,205l205,0l0,-205M182,0l0,205l205,0l0,-205C387,-75 374,-136 347,-182C320,-229 278,-265 220,-290l-50,77C208,-196 236,-172 254,-139C272,-107 282,-61 284,0z"/>
   <glyph unicode="&lt;" horiz-adv-x="1196" d="M112,641l0,168l971,410l0,-179l-770,-316l770,-319l0,-179z"/>
   <glyph unicode="=" horiz-adv-x="1196" d="M1082,862l-968,0l0,168l968,0M1082,417l-968,0l0,168l968,0z"/>
   <glyph unicode="&gt;" horiz-adv-x="1196" d="M1083,641l-971,-415l0,179l769,319l-769,316l0,179l971,-410z"/>
   <glyph unicode="?" horiz-adv-x="1139" d="M472,361C471,385 471,403 471,415C471,486 481,547 501,598C516,637 539,676 572,715C596,744 639,786 702,841C764,896 804,939 823,972C842,1005 851,1040 851,1079C851,1149 824,1211 769,1264C714,1317 647,1343 568,1343C491,1343 427,1319 376,1271C325,1223 291,1148 275,1046l-185,22C107,1205 156,1309 239,1382C321,1455 430,1491 565,1491C708,1491 823,1452 908,1374C993,1296 1036,1202 1036,1091C1036,1027 1021,968 991,914C961,860 902,794 815,717C756,665 718,627 700,602C682,577 669,549 660,517C651,485 646,433 645,361M461,0l0,205l205,0l0,-205z"/>
   <glyph unicode="@" horiz-adv-x="2079" d="M1161,163C1118,113 1069,73 1016,43C962,12 908,-3 854,-3C795,-3 737,14 681,49C625,84 580,137 545,209C510,281 492,360 492,446C492,552 519,658 574,765C628,871 695,951 776,1004C857,1057 935,1084 1011,1084C1069,1084 1124,1069 1177,1039C1230,1008 1275,962 1313,900l34,155l179,0l-144,-671C1362,291 1352,239 1352,229C1352,211 1359,196 1373,183C1386,170 1403,163 1422,163C1457,163 1504,183 1561,224C1637,277 1697,349 1742,439C1786,528 1808,621 1808,716C1808,827 1780,931 1723,1028C1666,1125 1581,1202 1468,1260C1355,1318 1230,1347 1093,1347C937,1347 795,1311 666,1238C537,1165 437,1060 366,924C295,787 259,641 259,485C259,322 295,181 366,63C437,-55 539,-142 674,-198C808,-255 957,-283 1120,-283C1295,-283 1441,-254 1559,-195C1677,-136 1765,-65 1824,19l181,0C1971,-51 1913,-122 1830,-195C1747,-268 1649,-325 1535,-367C1421,-410 1284,-431 1123,-431C975,-431 839,-412 714,-374C589,-336 482,-279 394,-202C306,-126 240,-38 195,61C139,187 111,323 111,469C111,632 144,787 211,934C292,1115 408,1253 558,1349C707,1445 889,1493 1102,1493C1267,1493 1416,1459 1548,1392C1679,1324 1783,1223 1859,1089C1924,974 1956,848 1956,713C1956,520 1888,348 1752,198C1631,63 1498,-4 1354,-4C1308,-4 1271,3 1243,17C1214,31 1193,51 1180,77C1171,94 1165,122 1161,163M677,434C677,343 699,272 742,221C785,170 835,145 891,145C928,145 968,156 1009,179C1050,201 1090,234 1128,278C1165,322 1196,378 1220,446C1244,513 1256,581 1256,649C1256,740 1234,810 1189,860C1144,910 1089,935 1024,935C981,935 941,924 904,903C866,881 829,846 794,798C759,750 730,692 709,623C688,554 677,491 677,434z"/>
   <glyph unicode="A" horiz-adv-x="1366" d="M-3,0l563,1466l209,0l600,-1466l-221,0l-171,444l-613,0l-161,-444M420,602l497,0l-153,406C717,1131 683,1233 660,1312C641,1218 615,1125 581,1032z"/>
   <glyph unicode="B" horiz-adv-x="1366" d="M150,0l0,1466l550,0C812,1466 902,1451 970,1422C1037,1392 1090,1346 1129,1285C1167,1223 1186,1158 1186,1091C1186,1028 1169,969 1135,914C1101,859 1050,814 981,780C1070,754 1138,710 1186,647C1233,584 1257,510 1257,425C1257,356 1243,293 1214,234C1185,175 1149,129 1106,97C1063,65 1010,41 946,25C881,8 802,0 709,0M344,850l317,0C747,850 809,856 846,867C895,882 933,906 958,940C983,974 995,1017 995,1068C995,1117 983,1160 960,1197C937,1234 903,1259 860,1273C817,1286 742,1293 637,1293l-293,0M344,173l365,0C772,173 816,175 841,180C886,188 923,201 953,220C983,239 1008,266 1027,302C1046,337 1056,378 1056,425C1056,480 1042,527 1014,568C986,608 947,636 898,653C848,669 776,677 683,677l-339,0z"/>
   <glyph unicode="C" horiz-adv-x="1479" d="M1204,514l194,-49C1357,306 1284,184 1179,101C1073,17 944,-25 791,-25C633,-25 505,7 406,72C307,136 231,229 180,351C128,473 102,604 102,744C102,897 131,1030 190,1144C248,1257 331,1344 439,1403C546,1462 665,1491 794,1491C941,1491 1064,1454 1164,1379C1264,1304 1334,1199 1373,1064l-191,-45C1148,1126 1099,1203 1034,1252C969,1301 888,1325 790,1325C677,1325 583,1298 508,1244C432,1190 379,1118 348,1027C317,936 302,842 302,745C302,620 320,512 357,419C393,326 449,256 526,210C603,164 686,141 775,141C884,141 976,172 1051,235C1126,298 1177,391 1204,514z"/>
   <glyph unicode="D" horiz-adv-x="1479" d="M158,0l0,1466l505,0C777,1466 864,1459 924,1445C1008,1426 1080,1391 1139,1340C1216,1275 1274,1191 1313,1090C1351,988 1370,872 1370,741C1370,630 1357,531 1331,445C1305,359 1272,288 1231,232C1190,175 1146,131 1098,99C1049,66 991,42 923,25C854,8 776,0 687,0M352,173l313,0C762,173 838,182 893,200C948,218 991,243 1024,276C1070,322 1106,384 1132,462C1157,539 1170,633 1170,744C1170,897 1145,1015 1095,1098C1044,1180 983,1235 911,1263C859,1283 775,1293 660,1293l-308,0z"/>
   <glyph unicode="E" horiz-adv-x="1366" d="M162,0l0,1466l1060,0l0,-173l-866,0l0,-449l811,0l0,-172l-811,0l0,-499l900,0l0,-173z"/>
   <glyph unicode="F" horiz-adv-x="1251" d="M168,0l0,1466l989,0l0,-173l-795,0l0,-454l688,0l0,-173l-688,0l0,-666z"/>
   <glyph unicode="G" horiz-adv-x="1593" d="M844,575l0,172l621,1l0,-544C1370,128 1271,71 1170,33C1069,-6 965,-25 858,-25C714,-25 583,6 466,68C348,129 259,218 199,335C139,452 109,582 109,726C109,869 139,1002 199,1126C258,1249 344,1341 456,1401C568,1461 697,1491 843,1491C949,1491 1045,1474 1131,1440C1216,1405 1283,1357 1332,1296C1381,1235 1418,1155 1443,1056l-175,-48C1246,1083 1219,1141 1186,1184C1153,1227 1107,1261 1046,1287C985,1312 918,1325 844,1325C755,1325 679,1312 614,1285C549,1258 497,1222 458,1178C418,1134 387,1086 365,1033C328,942 309,844 309,738C309,607 332,498 377,410C422,322 487,257 573,214C659,171 750,150 847,150C931,150 1013,166 1093,199C1173,231 1234,265 1275,302l0,273z"/>
   <glyph unicode="H" horiz-adv-x="1479" d="M164,0l0,1466l194,0l0,-602l762,0l0,602l194,0l0,-1466l-194,0l0,691l-762,0l0,-691z"/>
   <glyph unicode="I" horiz-adv-x="569" d="M191,0l0,1466l194,0l0,-1466z"/>
   <glyph unicode="J" horiz-adv-x="1024" d="M59,416l175,24C239,328 260,251 297,210C334,169 386,148 452,148C501,148 543,159 578,182C613,204 638,234 651,273C664,311 671,372 671,456l0,1010l194,0l0,-999C865,344 850,249 821,182C791,115 744,63 680,28C615,-7 540,-25 453,-25C324,-25 226,12 158,86C89,160 56,270 59,416z"/>
   <glyph unicode="K" horiz-adv-x="1366" d="M150,0l0,1466l194,0l0,-727l728,727l263,0l-615,-594l642,-872l-256,0l-522,742l-240,-234l0,-508z"/>
   <glyph unicode="L" horiz-adv-x="1139" d="M150,0l0,1466l194,0l0,-1293l722,0l0,-173z"/>
   <glyph unicode="M" horiz-adv-x="1706" d="M152,0l0,1466l292,0l347,-1038C823,331 846,259 861,211C878,264 904,343 939,446l351,1020l261,0l0,-1466l-187,0l0,1227l-426,-1227l-175,0l-424,1248l0,-1248z"/>
   <glyph unicode="N" horiz-adv-x="1479" d="M156,0l0,1466l199,0l770,-1151l0,1151l186,0l0,-1466l-199,0l-770,1152l0,-1152z"/>
   <glyph unicode="O" horiz-adv-x="1593" d="M99,714C99,957 164,1148 295,1286C426,1423 594,1492 801,1492C936,1492 1058,1460 1167,1395C1276,1330 1359,1240 1416,1125C1473,1009 1501,878 1501,731C1501,582 1471,449 1411,332C1351,215 1266,126 1156,66C1046,5 927,-25 800,-25C662,-25 539,8 430,75C321,142 239,233 183,348C127,463 99,585 99,714M299,711C299,534 347,395 442,294C537,192 656,141 799,141C945,141 1065,192 1160,295C1254,398 1301,543 1301,732C1301,851 1281,956 1241,1045C1200,1134 1141,1203 1064,1252C986,1301 899,1325 802,1325C665,1325 547,1278 448,1184C349,1089 299,932 299,711z"/>
   <glyph unicode="P" horiz-adv-x="1366" d="M158,0l0,1466l553,0C808,1466 883,1461 934,1452C1006,1440 1066,1417 1115,1384C1164,1350 1203,1303 1233,1242C1262,1181 1277,1115 1277,1042C1277,917 1237,812 1158,726C1079,639 935,596 728,596l-376,0l0,-596M352,769l379,0C856,769 945,792 998,839C1051,886 1077,951 1077,1036C1077,1097 1062,1150 1031,1194C1000,1237 959,1266 908,1280C875,1289 815,1293 727,1293l-375,0z"/>
   <glyph unicode="Q" horiz-adv-x="1593" d="M1269,157C1359,95 1442,50 1518,21l-57,-135C1356,-76 1251,-16 1146,66C1037,5 917,-25 786,-25C653,-25 533,7 425,71C317,135 234,225 176,341C117,457 88,588 88,733C88,878 117,1009 176,1128C235,1247 318,1337 427,1399C535,1461 656,1492 790,1492C925,1492 1047,1460 1156,1396C1265,1331 1348,1241 1405,1126C1462,1010 1490,879 1490,734C1490,613 1472,505 1435,409C1398,312 1343,228 1269,157M842,405C954,374 1046,327 1119,265C1233,369 1290,525 1290,734C1290,853 1270,956 1230,1045C1189,1134 1130,1203 1053,1252C975,1301 888,1325 791,1325C646,1325 526,1276 431,1177C336,1078 288,930 288,733C288,542 335,396 430,294C524,192 644,141 791,141C860,141 926,154 987,180C926,219 862,247 795,264z"/>
   <glyph unicode="R" horiz-adv-x="1479" d="M161,0l0,1466l650,0C942,1466 1041,1453 1109,1427C1177,1400 1231,1354 1272,1287C1313,1220 1333,1147 1333,1066C1333,962 1299,874 1232,803C1165,732 1061,686 920,667C971,642 1010,618 1037,594C1094,542 1147,477 1198,399l255,-399l-244,0l-194,305C958,393 912,460 875,507C838,554 806,586 777,605C748,624 718,637 688,644C666,649 630,651 580,651l-225,0l0,-651M355,819l417,0C861,819 930,828 980,847C1030,865 1068,894 1094,935C1120,975 1133,1019 1133,1066C1133,1135 1108,1192 1058,1237C1007,1282 928,1304 819,1304l-464,0z"/>
   <glyph unicode="S" horiz-adv-x="1366" d="M92,471l183,16C284,414 304,354 336,307C367,260 416,222 483,193C550,164 625,149 708,149C782,149 847,160 904,182C961,204 1003,234 1031,273C1058,311 1072,353 1072,398C1072,444 1059,484 1032,519C1005,553 961,582 900,605C861,620 774,644 639,677C504,709 410,739 356,768C286,805 234,850 200,905C165,959 148,1020 148,1087C148,1161 169,1230 211,1295C253,1359 314,1408 395,1441C476,1474 565,1491 664,1491C773,1491 869,1474 952,1439C1035,1404 1098,1352 1143,1284C1188,1216 1212,1139 1215,1053l-186,-14C1019,1132 985,1202 928,1249C870,1296 785,1320 672,1320C555,1320 469,1299 416,1256C362,1213 335,1161 335,1100C335,1047 354,1004 392,970C429,936 527,901 685,866C842,830 950,799 1009,772C1094,733 1157,683 1198,623C1239,562 1259,493 1259,414C1259,336 1237,263 1192,194C1147,125 1083,71 1000,33C916,-6 822,-25 717,-25C584,-25 473,-6 384,33C294,72 224,130 173,208C122,285 95,373 92,471z"/>
   <glyph unicode="T" horiz-adv-x="1251" d="M531,0l0,1293l-483,0l0,173l1162,0l0,-173l-485,0l0,-1293z"/>
   <glyph unicode="U" horiz-adv-x="1479" d="M1120,1466l194,0l0,-847C1314,472 1297,355 1264,268C1231,181 1171,111 1084,57C997,2 882,-25 741,-25C604,-25 491,-1 404,46C317,93 254,162 217,252C180,341 161,464 161,619l0,847l194,0l0,-846C355,493 367,399 391,339C414,278 455,232 513,199C570,166 641,150 724,150C867,150 968,182 1029,247C1090,312 1120,436 1120,620z"/>
   <glyph unicode="V" horiz-adv-x="1366" d="M577,0l-568,1466l210,0l381,-1065C631,316 656,236 677,161C700,241 726,321 756,401l396,1065l198,0l-574,-1466z"/>
   <glyph unicode="W" horiz-adv-x="1933" d="M414,0l-389,1466l199,0l223,-961C471,404 492,304 509,205C546,362 568,452 575,476l279,990l234,0l210,-742C1351,540 1389,367 1412,205C1431,298 1455,404 1485,524l230,942l195,0l-402,-1466l-187,0l-309,1117C986,1210 971,1268 966,1289C951,1222 936,1164 923,1117l-311,-1117z"/>
   <glyph unicode="X" horiz-adv-x="1366" d="M9,0l567,764l-500,702l231,0l266,-376C628,1012 668,952 691,910C724,963 762,1019 807,1077l295,389l211,0l-515,-691l555,-775l-240,0l-369,523C723,553 702,586 680,621C647,568 624,531 610,511l-368,-511z"/>
   <glyph unicode="Y" horiz-adv-x="1366" d="M571,0l0,621l-565,845l236,0l289,-442C584,941 634,859 680,776C724,853 777,939 840,1035l284,431l226,0l-585,-845l0,-621z"/>
   <glyph unicode="Z" horiz-adv-x="1251" d="M41,0l0,180l751,939C845,1186 896,1244 944,1293l-818,0l0,173l1050,0l0,-173l-823,-1017l-89,-103l936,0l0,-173z"/>
   <glyph unicode="[" horiz-adv-x="569" d="M139,-407l0,1873l397,0l0,-149l-217,0l0,-1575l217,0l0,-149z"/>
   <glyph unicode="\" horiz-adv-x="569" d="M425,-25l-425,1516l145,0l424,-1516z"/>
   <glyph unicode="]" horiz-adv-x="569" d="M436,-407l-397,0l0,149l217,0l0,1575l-217,0l0,149l397,0z"/>
   <glyph unicode="^" horiz-adv-x="961" d="M239,690l-185,0l353,801l145,0l355,-801l-181,0l-247,597z"/>
   <glyph unicode="_" horiz-adv-x="1139" d="M-31,-407l0,130l1193,0l0,-130z"/>
   <glyph unicode="`" horiz-adv-x="682" d="M465,1194l-145,0l-231,280l241,0z"/>
   <glyph unicode="a" horiz-adv-x="1139" d="M828,131C761,74 697,34 636,11C574,-12 508,-24 437,-24C320,-24 231,5 168,62C105,119 74,191 74,280C74,332 86,380 110,423C133,466 164,500 203,526C241,552 284,572 332,585C367,594 421,603 492,612C637,629 744,650 813,674C814,699 814,714 814,721C814,794 797,846 763,876C717,917 649,937 558,937C473,937 411,922 371,893C330,863 300,810 281,735l-176,24C121,834 147,895 184,942C221,988 274,1024 343,1049C412,1074 493,1086 584,1086C675,1086 748,1075 805,1054C862,1033 903,1006 930,974C957,941 975,900 986,851C992,820 995,765 995,685l0,-240C995,278 999,172 1007,128C1014,83 1029,41 1052,0l-188,0C845,37 833,81 828,131M813,533C748,506 650,484 519,465C445,454 393,442 362,429C331,416 308,396 291,371C274,345 266,316 266,285C266,237 284,197 321,165C357,133 410,117 480,117C549,117 611,132 665,163C719,193 759,234 784,287C803,328 813,388 813,467z"/>
   <glyph unicode="b" horiz-adv-x="1139" d="M301,0l-167,0l0,1466l180,0l0,-523C390,1038 487,1086 605,1086C670,1086 732,1073 791,1047C849,1020 897,983 935,936C972,888 1002,830 1023,763C1044,696 1055,624 1055,547C1055,365 1010,224 920,125C830,26 722,-24 596,-24C471,-24 372,28 301,133M299,539C299,412 316,320 351,263C408,170 484,124 581,124C660,124 728,158 785,227C842,295 871,397 871,532C871,671 844,773 789,839C734,905 667,938 589,938C510,938 442,904 385,836C328,767 299,668 299,539z"/>
   <glyph unicode="c" horiz-adv-x="1024" d="M828,389l177,-23C986,244 936,149 857,80C777,11 679,-24 563,-24C418,-24 301,24 213,119C124,214 80,350 80,527C80,642 99,742 137,828C175,914 233,979 311,1022C388,1065 473,1086 564,1086C679,1086 774,1057 847,999C920,940 967,857 988,750l-175,-27C796,794 767,848 725,884C682,920 631,938 571,938C480,938 407,906 350,841C293,776 265,673 265,532C265,389 292,286 347,221C402,156 473,124 561,124C632,124 691,146 738,189C785,232 815,299 828,389z"/>
   <glyph unicode="d" horiz-adv-x="1139" d="M824,0l0,134C757,29 658,-24 527,-24C442,-24 365,-1 294,46C223,93 168,158 129,242C90,325 70,421 70,530C70,636 88,732 123,819C158,905 211,971 282,1017C353,1063 432,1086 519,1086C583,1086 640,1073 690,1046C740,1019 781,983 812,940l0,526l179,0l0,-1466M255,530C255,394 284,292 341,225C398,158 466,124 544,124C623,124 690,156 745,221C800,285 827,383 827,515C827,660 799,767 743,835C687,903 618,937 536,937C456,937 389,904 336,839C282,774 255,671 255,530z"/>
   <glyph unicode="e" horiz-adv-x="1139" d="M862,342l186,-23C1019,210 964,126 885,66C806,6 704,-24 581,-24C426,-24 303,24 212,120C121,215 75,349 75,522C75,701 121,839 213,938C305,1037 424,1086 571,1086C713,1086 829,1038 919,941C1009,844 1054,708 1054,533C1054,522 1054,506 1053,485l-792,0C268,368 301,279 360,217C419,155 493,124 582,124C648,124 704,141 751,176C798,211 835,266 862,342M271,633l593,0C856,722 833,789 796,834C739,903 664,938 573,938C490,938 421,910 365,855C308,800 277,726 271,633z"/>
   <glyph unicode="f" horiz-adv-x="569" d="M178,0l0,922l-159,0l0,140l159,0l0,113C178,1246 184,1299 197,1334C214,1381 245,1419 289,1448C332,1477 393,1491 472,1491C523,1491 579,1485 640,1473l-27,-157C576,1323 540,1326 507,1326C452,1326 414,1314 391,1291C368,1268 357,1224 357,1160l0,-98l207,0l0,-140l-207,0l0,-922z"/>
   <glyph unicode="g" horiz-adv-x="1139" d="M102,-88l175,-26C284,-168 305,-207 338,-232C383,-265 444,-282 521,-282C604,-282 669,-265 714,-232C759,-199 790,-152 806,-92C815,-55 820,22 819,139C740,46 642,0 525,0C379,0 266,53 186,158C106,263 66,390 66,537C66,638 84,732 121,818C158,903 211,969 281,1016C350,1063 432,1086 526,1086C651,1086 755,1035 836,934l0,128l166,0l0,-918C1002,-21 985,-138 952,-207C918,-276 865,-331 792,-371C719,-411 629,-431 522,-431C395,-431 293,-402 215,-345C137,-288 99,-203 102,-88M251,550C251,411 279,309 334,245C389,181 459,149 542,149C625,149 694,181 750,245C806,308 834,408 834,544C834,674 805,772 748,838C690,904 620,937 539,937C459,937 391,905 335,840C279,775 251,678 251,550z"/>
   <glyph unicode="h" horiz-adv-x="1139" d="M135,0l0,1466l180,0l0,-526C399,1037 505,1086 633,1086C712,1086 780,1071 838,1040C896,1009 938,966 963,911C988,856 1000,777 1000,673l0,-673l-180,0l0,673C820,763 801,829 762,870C723,911 667,931 596,931C543,931 493,917 446,890C399,862 365,824 345,777C325,730 315,664 315,581l0,-581z"/>
   <glyph unicode="i" horiz-adv-x="455" d="M136,1259l0,207l180,0l0,-207M136,0l0,1062l180,0l0,-1062z"/>
   <glyph unicode="j" horiz-adv-x="455" d="M134,1257l0,209l180,0l0,-209M-94,-412l34,153C-24,-268 4,-273 25,-273C62,-273 89,-261 107,-236C125,-212 134,-151 134,-54l0,1116l180,0l0,-1120C314,-189 297,-280 263,-331C220,-398 148,-431 47,-431C-2,-431 -49,-425 -94,-412z"/>
   <glyph unicode="k" horiz-adv-x="1024" d="M136,0l0,1466l180,0l0,-836l426,432l233,0l-406,-394l447,-668l-222,0l-351,543l-127,-122l0,-421z"/>
   <glyph unicode="l" horiz-adv-x="455" d="M131,0l0,1466l180,0l0,-1466z"/>
   <glyph unicode="m" horiz-adv-x="1706" d="M135,0l0,1062l161,0l0,-149C329,965 374,1007 429,1039C484,1070 547,1086 618,1086C697,1086 761,1070 812,1037C862,1004 897,959 918,900C1002,1024 1111,1086 1246,1086C1351,1086 1432,1057 1489,999C1546,940 1574,850 1574,729l0,-729l-179,0l0,669C1395,741 1389,793 1378,825C1366,856 1345,882 1314,901C1283,920 1247,930 1206,930C1131,930 1069,905 1020,856C971,806 946,726 946,617l0,-617l-180,0l0,690C766,770 751,830 722,870C693,910 645,930 578,930C527,930 481,917 438,890C395,863 363,824 344,773C325,722 315,648 315,551l0,-551z"/>
   <glyph unicode="n" horiz-adv-x="1139" d="M135,0l0,1062l162,0l0,-151C375,1028 488,1086 635,1086C699,1086 758,1075 812,1052C865,1029 905,998 932,961C959,924 977,879 988,828C995,795 998,736 998,653l0,-653l-180,0l0,646C818,719 811,774 797,811C783,847 758,876 723,898C687,919 645,930 597,930C520,930 454,906 399,857C343,808 315,716 315,580l0,-580z"/>
   <glyph unicode="o" horiz-adv-x="1139" d="M68,531C68,728 123,873 232,968C323,1047 435,1086 566,1086C712,1086 831,1038 924,943C1017,847 1063,715 1063,546C1063,409 1043,302 1002,224C961,145 901,84 823,41C744,-2 659,-24 566,-24C417,-24 297,24 206,119C114,214 68,352 68,531M253,531C253,395 283,293 342,226C401,158 476,124 566,124C655,124 730,158 789,226C848,294 878,398 878,537C878,668 848,768 789,836C729,903 655,937 566,937C476,937 401,903 342,836C283,769 253,667 253,531z"/>
   <glyph unicode="p" horiz-adv-x="1139" d="M135,-407l0,1469l164,0l0,-138C338,978 381,1019 430,1046C479,1073 538,1086 607,1086C698,1086 778,1063 847,1016C916,969 969,904 1004,819C1039,734 1057,640 1057,539C1057,430 1038,333 999,246C960,159 903,92 829,46C754,-1 676,-24 594,-24C534,-24 480,-11 433,14C385,39 346,71 315,110l0,-517M298,525C298,388 326,287 381,222C436,157 503,124 582,124C662,124 731,158 788,226C845,293 873,398 873,540C873,675 845,777 790,844C734,911 667,945 590,945C513,945 446,909 387,838C328,766 298,662 298,525z"/>
   <glyph unicode="q" horiz-adv-x="1139" d="M812,-407l0,520C784,74 745,41 695,15C644,-11 591,-24 534,-24C408,-24 300,26 209,127C118,228 72,366 72,541C72,648 91,743 128,828C165,913 218,977 289,1021C359,1064 436,1086 520,1086C651,1086 755,1031 830,920l0,142l162,0l0,-1469M257,534C257,397 286,295 343,227C400,158 469,124 549,124C626,124 692,157 747,222C802,287 830,385 830,518C830,659 801,766 743,837C684,908 616,944 537,944C459,944 393,911 339,845C284,778 257,675 257,534z"/>
   <glyph unicode="r" horiz-adv-x="682" d="M133,0l0,1062l162,0l0,-161C336,976 375,1026 410,1050C445,1074 483,1086 525,1086C586,1086 647,1067 710,1028l-62,-167C604,887 560,900 516,900C477,900 441,888 410,865C379,841 356,808 343,766C323,702 313,632 313,556l0,-556z"/>
   <glyph unicode="s" horiz-adv-x="1024" d="M63,317l178,28C251,274 279,219 325,181C370,143 434,124 516,124C599,124 660,141 700,175C740,208 760,248 760,293C760,334 742,366 707,389C682,405 621,425 523,450C391,483 300,512 249,537C198,561 159,595 133,638C106,681 93,728 93,780C93,827 104,871 126,912C147,952 177,985 214,1012C242,1033 280,1050 329,1065C377,1079 429,1086 484,1086C567,1086 641,1074 704,1050C767,1026 813,994 843,953C873,912 894,857 905,788l-176,-24C721,819 698,861 660,892C621,923 567,938 497,938C414,938 355,924 320,897C285,870 267,838 267,801C267,778 274,757 289,738C304,719 327,703 358,690C376,683 429,668 517,644C644,610 733,582 784,561C834,539 873,507 902,466C931,425 945,373 945,312C945,252 928,196 893,143C858,90 807,49 741,20C675,-9 600,-24 517,-24C379,-24 274,5 202,62C129,119 83,204 63,317z"/>
   <glyph unicode="t" horiz-adv-x="569" d="M528,161l26,-159C503,-9 458,-14 418,-14C353,-14 302,-4 266,17C230,38 205,65 190,99C175,132 168,203 168,311l0,611l-132,0l0,140l132,0l0,263l179,108l0,-371l181,0l0,-140l-181,0l0,-621C347,250 350,217 357,202C363,187 373,176 388,167C402,158 422,154 449,154C469,154 495,156 528,161z"/>
   <glyph unicode="u" horiz-adv-x="1139" d="M831,0l0,156C748,36 636,-24 494,-24C431,-24 373,-12 319,12C264,36 224,66 198,103C171,139 153,183 142,236C135,271 131,327 131,404l0,658l180,0l0,-589C311,379 315,316 322,283C333,236 357,199 394,172C431,145 476,131 530,131C584,131 635,145 682,173C729,200 763,238 783,286C802,333 812,402 812,493l0,569l180,0l0,-1062z"/>
   <glyph unicode="v" horiz-adv-x="1024" d="M430,0l-404,1062l190,0l228,-636C469,357 491,286 512,212C528,268 550,335 579,414l236,648l185,0l-402,-1062z"/>
   <glyph unicode="w" horiz-adv-x="1479" d="M331,0l-325,1062l186,0l169,-613l63,-228C427,232 445,305 479,440l169,622l185,0l159,-616l53,-203l61,205l182,614l175,0l-332,-1062l-187,0l-169,636l-41,181l-215,-817z"/>
   <glyph unicode="x" horiz-adv-x="1024" d="M15,0l388,552l-359,510l225,0l163,-249C463,766 487,726 506,694C535,738 562,777 587,811l179,251l215,0l-367,-500l395,-562l-221,0l-218,330l-58,89l-279,-419z"/>
   <glyph unicode="y" horiz-adv-x="1024" d="M127,-409l-20,169C146,-251 181,-256 210,-256C250,-256 282,-249 306,-236C330,-223 350,-204 365,-180C376,-162 395,-117 420,-46C423,-36 429,-21 436,-2l-403,1064l194,0l221,-615C477,369 502,287 525,201C546,284 570,364 599,443l227,619l180,0l-404,-1080C559,-135 525,-215 501,-259C469,-318 432,-362 391,-389C350,-417 300,-431 243,-431C208,-431 170,-424 127,-409z"/>
   <glyph unicode="z" horiz-adv-x="1024" d="M40,0l0,146l676,776C639,918 572,916 513,916l-433,0l0,146l868,0l0,-119l-575,-674l-111,-123C343,152 418,155 489,155l491,0l0,-155z"/>
   <glyph unicode="{" horiz-adv-x="684" d="M57,612C108,613 150,627 183,654C215,680 236,716 247,762C258,808 263,887 264,998C265,1109 267,1183 270,1218C276,1274 287,1319 304,1353C320,1387 340,1414 364,1435C388,1455 419,1470 456,1481C481,1488 523,1491 580,1491l56,0l0,-157l-31,0C536,1334 490,1322 467,1297C444,1272 433,1216 433,1129C433,954 429,844 422,798C410,727 390,672 361,633C332,594 286,560 224,530C297,499 351,453 384,390C417,327 433,223 433,80C433,-50 434,-127 437,-152C442,-197 456,-229 478,-247C499,-265 542,-274 605,-274l31,0l0,-157l-56,0C515,-431 467,-426 438,-415C395,-400 360,-375 332,-340C304,-306 286,-263 278,-210C269,-157 265,-71 264,49C263,169 258,252 247,298C236,344 215,380 183,407C150,434 108,448 57,449z"/>
   <glyph unicode="|" horiz-adv-x="532" d="M188,-431l0,1922l157,0l0,-1922z"/>
   <glyph unicode="}" horiz-adv-x="684" d="M626,612l0,-163C575,448 533,434 501,407C468,380 447,344 436,299C425,253 420,174 419,63C418,-48 416,-122 413,-157C407,-214 396,-259 380,-292C363,-326 343,-353 319,-373C295,-394 264,-409 227,-420C202,-427 160,-431 103,-431l-56,0l0,157l31,0C147,-274 193,-261 216,-236C239,-211 250,-155 250,-68C250,99 253,204 259,249C270,323 291,382 323,427C355,471 400,505 459,530C382,567 328,615 297,676C266,736 250,838 250,981C250,1111 248,1189 245,1214C240,1259 227,1290 206,1308C184,1325 141,1334 78,1334l-31,0l0,157l56,0C168,1491 216,1486 245,1475C288,1460 323,1436 351,1401C379,1366 397,1323 406,1270C414,1217 418,1131 419,1011C420,891 425,808 436,763C447,717 468,681 501,654C533,627 575,613 626,612z"/>
   <glyph unicode="~" horiz-adv-x="1196" d="M87,557l0,205C158,842 250,882 365,882C405,882 447,876 491,865C535,853 598,830 679,795C725,776 760,763 783,757C806,751 829,748 852,748C895,748 940,761 987,787C1033,813 1074,846 1110,885l0,-212C1067,633 1024,604 981,586C937,568 888,559 833,559C793,559 755,564 719,573C682,582 625,605 546,640C467,675 401,693 348,693C305,693 265,684 228,666C190,647 143,611 87,557z"/>
   <glyph unicode="&#xC4;" horiz-adv-x="1366" d="M-3,0l563,1466l209,0l600,-1466l-221,0l-171,444l-613,0l-161,-444M420,602l497,0l-153,406C717,1131 683,1233 660,1312C641,1218 615,1125 581,1032M379,1556l0,205l188,0l0,-205M752,1556l0,205l188,0l0,-205z"/>
   <glyph unicode="&#xC5;" horiz-adv-x="1366" d="M-3,0l563,1466l209,0l600,-1466l-221,0l-171,444l-613,0l-161,-444M420,602l497,0l-153,406C717,1131 683,1233 660,1312C641,1218 615,1125 581,1032M481,1601C481,1650 499,1692 535,1727C570,1762 612,1780 661,1780C710,1780 753,1762 788,1727C823,1691 841,1648 841,1597C841,1546 823,1502 788,1467C753,1432 711,1414 662,1414C612,1414 569,1432 534,1468C499,1503 481,1548 481,1601M557,1600C557,1569 568,1542 589,1521C610,1500 634,1489 663,1489C692,1489 717,1500 738,1521C759,1542 769,1568 769,1598C769,1628 759,1654 738,1675C717,1696 692,1707 663,1707C634,1707 610,1697 589,1676C568,1655 557,1629 557,1600z"/>
   <glyph unicode="&#xC7;" horiz-adv-x="1479" d="M1204,514l194,-49C1357,306 1284,184 1179,101C1073,17 944,-25 791,-25C633,-25 505,7 406,72C307,136 231,229 180,351C128,473 102,604 102,744C102,897 131,1030 190,1144C248,1257 331,1344 439,1403C546,1462 665,1491 794,1491C941,1491 1064,1454 1164,1379C1264,1304 1334,1199 1373,1064l-191,-45C1148,1126 1099,1203 1034,1252C969,1301 888,1325 790,1325C677,1325 583,1298 508,1244C432,1190 379,1118 348,1027C317,936 302,842 302,745C302,620 320,512 357,419C393,326 449,256 526,210C603,164 686,141 775,141C884,141 976,172 1051,235C1126,298 1177,391 1204,514M620,-154l52,177l134,0l-33,-107C830,-91 872,-108 901,-136C930,-165 944,-196 944,-231C944,-281 920,-325 872,-363C824,-402 752,-421 655,-421C600,-421 552,-417 511,-409l11,117C565,-295 596,-296 616,-296C679,-296 723,-287 748,-270C767,-257 777,-240 777,-221C777,-209 773,-198 766,-189C758,-180 744,-172 723,-165C702,-158 668,-155 620,-154z"/>
   <glyph unicode="&#xC9;" horiz-adv-x="1366" d="M162,0l0,1466l1060,0l0,-173l-866,0l0,-449l811,0l0,-172l-811,0l0,-499l900,0l0,-173M562,1556l133,280l236,0l-220,-280z"/>
   <glyph unicode="&#xD1;" horiz-adv-x="1479" d="M156,0l0,1466l199,0l770,-1151l0,1151l186,0l0,-1466l-199,0l-770,1152l0,-1152M430,1556C429,1625 448,1681 487,1722C525,1763 574,1784 633,1784C674,1784 731,1766 802,1730C841,1710 873,1700 896,1700C917,1700 934,1706 945,1718C956,1729 964,1752 969,1787l130,0C1097,1711 1078,1654 1042,1616C1005,1578 959,1559 903,1559C861,1559 806,1578 737,1615C692,1639 660,1651 639,1651C616,1651 598,1643 584,1627C569,1611 562,1587 563,1556z"/>
   <glyph unicode="&#xD6;" horiz-adv-x="1593" d="M99,714C99,957 164,1148 295,1286C426,1423 594,1492 801,1492C936,1492 1058,1460 1167,1395C1276,1330 1359,1240 1416,1125C1473,1009 1501,878 1501,731C1501,582 1471,449 1411,332C1351,215 1266,126 1156,66C1046,5 927,-25 800,-25C662,-25 539,8 430,75C321,142 239,233 183,348C127,463 99,585 99,714M299,711C299,534 347,395 442,294C537,192 656,141 799,141C945,141 1065,192 1160,295C1254,398 1301,543 1301,732C1301,851 1281,956 1241,1045C1200,1134 1141,1203 1064,1252C986,1301 899,1325 802,1325C665,1325 547,1278 448,1184C349,1089 299,932 299,711M516,1556l0,205l188,0l0,-205M889,1556l0,205l188,0l0,-205z"/>
   <glyph unicode="&#xDC;" horiz-adv-x="1479" d="M1120,1466l194,0l0,-847C1314,472 1297,355 1264,268C1231,181 1171,111 1084,57C997,2 882,-25 741,-25C604,-25 491,-1 404,46C317,93 254,162 217,252C180,341 161,464 161,619l0,847l194,0l0,-846C355,493 367,399 391,339C414,278 455,232 513,199C570,166 641,150 724,150C867,150 968,182 1029,247C1090,312 1120,436 1120,620M454,1556l0,205l188,0l0,-205M827,1556l0,205l188,0l0,-205z"/>
   <glyph unicode="&#xE1;" horiz-adv-x="1139" d="M828,131C761,74 697,34 636,11C574,-12 508,-24 437,-24C320,-24 231,5 168,62C105,119 74,191 74,280C74,332 86,380 110,423C133,466 164,500 203,526C241,552 284,572 332,585C367,594 421,603 492,612C637,629 744,650 813,674C814,699 814,714 814,721C814,794 797,846 763,876C717,917 649,937 558,937C473,937 411,922 371,893C330,863 300,810 281,735l-176,24C121,834 147,895 184,942C221,988 274,1024 343,1049C412,1074 493,1086 584,1086C675,1086 748,1075 805,1054C862,1033 903,1006 930,974C957,941 975,900 986,851C992,820 995,765 995,685l0,-240C995,278 999,172 1007,128C1014,83 1029,41 1052,0l-188,0C845,37 833,81 828,131M813,533C748,506 650,484 519,465C445,454 393,442 362,429C331,416 308,396 291,371C274,345 266,316 266,285C266,237 284,197 321,165C357,133 410,117 480,117C549,117 611,132 665,163C719,193 759,234 784,287C803,328 813,388 813,467M463,1194l133,280l236,0l-220,-280z"/>
   <glyph unicode="&#xE0;" horiz-adv-x="1139" d="M828,131C761,74 697,34 636,11C574,-12 508,-24 437,-24C320,-24 231,5 168,62C105,119 74,191 74,280C74,332 86,380 110,423C133,466 164,500 203,526C241,552 284,572 332,585C367,594 421,603 492,612C637,629 744,650 813,674C814,699 814,714 814,721C814,794 797,846 763,876C717,917 649,937 558,937C473,937 411,922 371,893C330,863 300,810 281,735l-176,24C121,834 147,895 184,942C221,988 274,1024 343,1049C412,1074 493,1086 584,1086C675,1086 748,1075 805,1054C862,1033 903,1006 930,974C957,941 975,900 986,851C992,820 995,765 995,685l0,-240C995,278 999,172 1007,128C1014,83 1029,41 1052,0l-188,0C845,37 833,81 828,131M813,533C748,506 650,484 519,465C445,454 393,442 362,429C331,416 308,396 291,371C274,345 266,316 266,285C266,237 284,197 321,165C357,133 410,117 480,117C549,117 611,132 665,163C719,193 759,234 784,287C803,328 813,388 813,467M715,1194l-145,0l-231,280l241,0z"/>
   <glyph unicode="&#xE2;" horiz-adv-x="1139" d="M828,131C761,74 697,34 636,11C574,-12 508,-24 437,-24C320,-24 231,5 168,62C105,119 74,191 74,280C74,332 86,380 110,423C133,466 164,500 203,526C241,552 284,572 332,585C367,594 421,603 492,612C637,629 744,650 813,674C814,699 814,714 814,721C814,794 797,846 763,876C717,917 649,937 558,937C473,937 411,922 371,893C330,863 300,810 281,735l-176,24C121,834 147,895 184,942C221,988 274,1024 343,1049C412,1074 493,1086 584,1086C675,1086 748,1075 805,1054C862,1033 903,1006 930,974C957,941 975,900 986,851C992,820 995,765 995,685l0,-240C995,278 999,172 1007,128C1014,83 1029,41 1052,0l-188,0C845,37 833,81 828,131M813,533C748,506 650,484 519,465C445,454 393,442 362,429C331,416 308,396 291,371C274,345 266,316 266,285C266,237 284,197 321,165C357,133 410,117 480,117C549,117 611,132 665,163C719,193 759,234 784,287C803,328 813,388 813,467M566,1364l-113,-170l-206,0l216,280l192,0l225,-280l-204,0z"/>
   <glyph unicode="&#xE4;" horiz-adv-x="1139" d="M828,131C761,74 697,34 636,11C574,-12 508,-24 437,-24C320,-24 231,5 168,62C105,119 74,191 74,280C74,332 86,380 110,423C133,466 164,500 203,526C241,552 284,572 332,585C367,594 421,603 492,612C637,629 744,650 813,674C814,699 814,714 814,721C814,794 797,846 763,876C717,917 649,937 558,937C473,937 411,922 371,893C330,863 300,810 281,735l-176,24C121,834 147,895 184,942C221,988 274,1024 343,1049C412,1074 493,1086 584,1086C675,1086 748,1075 805,1054C862,1033 903,1006 930,974C957,941 975,900 986,851C992,820 995,765 995,685l0,-240C995,278 999,172 1007,128C1014,83 1029,41 1052,0l-188,0C845,37 833,81 828,131M813,533C748,506 650,484 519,465C445,454 393,442 362,429C331,416 308,396 291,371C274,345 266,316 266,285C266,237 284,197 321,165C357,133 410,117 480,117C549,117 611,132 665,163C719,193 759,234 784,287C803,328 813,388 813,467M283,1270l0,205l188,0l0,-205M656,1270l0,205l188,0l0,-205z"/>
   <glyph unicode="&#xE3;" horiz-adv-x="1139" d="M828,131C761,74 697,34 636,11C574,-12 508,-24 437,-24C320,-24 231,5 168,62C105,119 74,191 74,280C74,332 86,380 110,423C133,466 164,500 203,526C241,552 284,572 332,585C367,594 421,603 492,612C637,629 744,650 813,674C814,699 814,714 814,721C814,794 797,846 763,876C717,917 649,937 558,937C473,937 411,922 371,893C330,863 300,810 281,735l-176,24C121,834 147,895 184,942C221,988 274,1024 343,1049C412,1074 493,1086 584,1086C675,1086 748,1075 805,1054C862,1033 903,1006 930,974C957,941 975,900 986,851C992,820 995,765 995,685l0,-240C995,278 999,172 1007,128C1014,83 1029,41 1052,0l-188,0C845,37 833,81 828,131M813,533C748,506 650,484 519,465C445,454 393,442 362,429C331,416 308,396 291,371C274,345 266,316 266,285C266,237 284,197 321,165C357,133 410,117 480,117C549,117 611,132 665,163C719,193 759,234 784,287C803,328 813,388 813,467M229,1219C228,1288 247,1344 286,1385C324,1426 373,1447 432,1447C473,1447 530,1429 601,1393C640,1373 672,1363 695,1363C716,1363 733,1369 744,1381C755,1392 763,1415 768,1450l130,0C896,1374 877,1317 841,1279C804,1241 758,1222 702,1222C660,1222 605,1241 536,1278C491,1302 459,1314 438,1314C415,1314 397,1306 383,1290C368,1274 361,1250 362,1219z"/>
   <glyph unicode="&#xE5;" horiz-adv-x="1139" d="M828,131C761,74 697,34 636,11C574,-12 508,-24 437,-24C320,-24 231,5 168,62C105,119 74,191 74,280C74,332 86,380 110,423C133,466 164,500 203,526C241,552 284,572 332,585C367,594 421,603 492,612C637,629 744,650 813,674C814,699 814,714 814,721C814,794 797,846 763,876C717,917 649,937 558,937C473,937 411,922 371,893C330,863 300,810 281,735l-176,24C121,834 147,895 184,942C221,988 274,1024 343,1049C412,1074 493,1086 584,1086C675,1086 748,1075 805,1054C862,1033 903,1006 930,974C957,941 975,900 986,851C992,820 995,765 995,685l0,-240C995,278 999,172 1007,128C1014,83 1029,41 1052,0l-188,0C845,37 833,81 828,131M813,533C748,506 650,484 519,465C445,454 393,442 362,429C331,416 308,396 291,371C274,345 266,316 266,285C266,237 284,197 321,165C357,133 410,117 480,117C549,117 611,132 665,163C719,193 759,234 784,287C803,328 813,388 813,467M383,1338C383,1387 401,1429 437,1464C472,1499 514,1517 563,1517C612,1517 655,1499 690,1464C725,1428 743,1385 743,1334C743,1283 725,1239 690,1204C655,1169 613,1151 564,1151C514,1151 471,1169 436,1205C401,1240 383,1285 383,1338M459,1337C459,1306 470,1279 491,1258C512,1237 536,1226 565,1226C594,1226 619,1237 640,1258C661,1279 671,1305 671,1335C671,1365 661,1391 640,1412C619,1433 594,1444 565,1444C536,1444 512,1434 491,1413C470,1392 459,1366 459,1337z"/>
   <glyph unicode="&#xE7;" horiz-adv-x="1024" d="M828,389l177,-23C986,244 936,149 857,80C777,11 679,-24 563,-24C418,-24 301,24 213,119C124,214 80,350 80,527C80,642 99,742 137,828C175,914 233,979 311,1022C388,1065 473,1086 564,1086C679,1086 774,1057 847,999C920,940 967,857 988,750l-175,-27C796,794 767,848 725,884C682,920 631,938 571,938C480,938 407,906 350,841C293,776 265,673 265,532C265,389 292,286 347,221C402,156 473,124 561,124C632,124 691,146 738,189C785,232 815,299 828,389M411,-134l52,177l134,0l-33,-107C621,-71 663,-88 692,-116C721,-145 735,-176 735,-211C735,-261 711,-305 663,-343C615,-382 543,-401 446,-401C391,-401 343,-397 302,-389l11,117C356,-275 387,-276 407,-276C470,-276 514,-267 539,-250C558,-237 568,-220 568,-201C568,-189 564,-178 557,-169C549,-160 535,-152 514,-145C493,-138 459,-135 411,-134z"/>
   <glyph unicode="&#xE9;" horiz-adv-x="1139" d="M862,342l186,-23C1019,210 964,126 885,66C806,6 704,-24 581,-24C426,-24 303,24 212,120C121,215 75,349 75,522C75,701 121,839 213,938C305,1037 424,1086 571,1086C713,1086 829,1038 919,941C1009,844 1054,708 1054,533C1054,522 1054,506 1053,485l-792,0C268,368 301,279 360,217C419,155 493,124 582,124C648,124 704,141 751,176C798,211 835,266 862,342M271,633l593,0C856,722 833,789 796,834C739,903 664,938 573,938C490,938 421,910 365,855C308,800 277,726 271,633M465,1194l133,280l236,0l-220,-280z"/>
   <glyph unicode="&#xE8;" horiz-adv-x="1139" d="M862,342l186,-23C1019,210 964,126 885,66C806,6 704,-24 581,-24C426,-24 303,24 212,120C121,215 75,349 75,522C75,701 121,839 213,938C305,1037 424,1086 571,1086C713,1086 829,1038 919,941C1009,844 1054,708 1054,533C1054,522 1054,506 1053,485l-792,0C268,368 301,279 360,217C419,155 493,124 582,124C648,124 704,141 751,176C798,211 835,266 862,342M271,633l593,0C856,722 833,789 796,834C739,903 664,938 573,938C490,938 421,910 365,855C308,800 277,726 271,633M686,1194l-145,0l-231,280l241,0z"/>
   <glyph unicode="&#xEA;" horiz-adv-x="1139" d="M862,342l186,-23C1019,210 964,126 885,66C806,6 704,-24 581,-24C426,-24 303,24 212,120C121,215 75,349 75,522C75,701 121,839 213,938C305,1037 424,1086 571,1086C713,1086 829,1038 919,941C1009,844 1054,708 1054,533C1054,522 1054,506 1053,485l-792,0C268,368 301,279 360,217C419,155 493,124 582,124C648,124 704,141 751,176C798,211 835,266 862,342M271,633l593,0C856,722 833,789 796,834C739,903 664,938 573,938C490,938 421,910 365,855C308,800 277,726 271,633M567,1364l-113,-170l-206,0l216,280l192,0l225,-280l-204,0z"/>
   <glyph unicode="&#xEB;" horiz-adv-x="1139" d="M862,342l186,-23C1019,210 964,126 885,66C806,6 704,-24 581,-24C426,-24 303,24 212,120C121,215 75,349 75,522C75,701 121,839 213,938C305,1037 424,1086 571,1086C713,1086 829,1038 919,941C1009,844 1054,708 1054,533C1054,522 1054,506 1053,485l-792,0C268,368 301,279 360,217C419,155 493,124 582,124C648,124 704,141 751,176C798,211 835,266 862,342M271,633l593,0C856,722 833,789 796,834C739,903 664,938 573,938C490,938 421,910 365,855C308,800 277,726 271,633M284,1270l0,205l188,0l0,-205M657,1270l0,205l188,0l0,-205z"/>
   <glyph unicode="&#xED;" horiz-adv-x="569" d="M198,0l0,1062l180,0l0,-1062M189,1194l133,280l236,0l-220,-280z"/>
   <glyph unicode="&#xEC;" horiz-adv-x="569" d="M198,0l0,1062l180,0l0,-1062M411,1194l-145,0l-231,280l241,0z"/>
   <glyph unicode="&#xEE;" horiz-adv-x="569" d="M198,0l0,1062l180,0l0,-1062M302,1364l-113,-170l-206,0l216,280l192,0l225,-280l-204,0z"/>
   <glyph unicode="&#xEF;" horiz-adv-x="569" d="M198,0l0,1062l180,0l0,-1062M9,1270l0,205l188,0l0,-205M382,1270l0,205l188,0l0,-205z"/>
   <glyph unicode="&#xF1;" horiz-adv-x="1139" d="M135,0l0,1062l162,0l0,-151C375,1028 488,1086 635,1086C699,1086 758,1075 812,1052C865,1029 905,998 932,961C959,924 977,879 988,828C995,795 998,736 998,653l0,-653l-180,0l0,646C818,719 811,774 797,811C783,847 758,876 723,898C687,919 645,930 597,930C520,930 454,906 399,857C343,808 315,716 315,580l0,-580M262,1219C261,1288 280,1344 319,1385C357,1426 406,1447 465,1447C506,1447 563,1429 634,1393C673,1373 705,1363 728,1363C749,1363 766,1369 777,1381C788,1392 796,1415 801,1450l130,0C929,1374 910,1317 874,1279C837,1241 791,1222 735,1222C693,1222 638,1241 569,1278C524,1302 492,1314 471,1314C448,1314 430,1306 416,1290C401,1274 394,1250 395,1219z"/>
   <glyph unicode="&#xF3;" horiz-adv-x="1139" d="M68,531C68,728 123,873 232,968C323,1047 435,1086 566,1086C712,1086 831,1038 924,943C1017,847 1063,715 1063,546C1063,409 1043,302 1002,224C961,145 901,84 823,41C744,-2 659,-24 566,-24C417,-24 297,24 206,119C114,214 68,352 68,531M253,531C253,395 283,293 342,226C401,158 476,124 566,124C655,124 730,158 789,226C848,294 878,398 878,537C878,668 848,768 789,836C729,903 655,937 566,937C476,937 401,903 342,836C283,769 253,667 253,531M466,1194l133,280l236,0l-220,-280z"/>
   <glyph unicode="&#xF2;" horiz-adv-x="1139" d="M68,531C68,728 123,873 232,968C323,1047 435,1086 566,1086C712,1086 831,1038 924,943C1017,847 1063,715 1063,546C1063,409 1043,302 1002,224C961,145 901,84 823,41C744,-2 659,-24 566,-24C417,-24 297,24 206,119C114,214 68,352 68,531M253,531C253,395 283,293 342,226C401,158 476,124 566,124C655,124 730,158 789,226C848,294 878,398 878,537C878,668 848,768 789,836C729,903 655,937 566,937C476,937 401,903 342,836C283,769 253,667 253,531M687,1194l-145,0l-231,280l241,0z"/>
   <glyph unicode="&#xF4;" horiz-adv-x="1139" d="M68,531C68,728 123,873 232,968C323,1047 435,1086 566,1086C712,1086 831,1038 924,943C1017,847 1063,715 1063,546C1063,409 1043,302 1002,224C961,145 901,84 823,41C744,-2 659,-24 566,-24C417,-24 297,24 206,119C114,214 68,352 68,531M253,531C253,395 283,293 342,226C401,158 476,124 566,124C655,124 730,158 789,226C848,294 878,398 878,537C878,668 848,768 789,836C729,903 655,937 566,937C476,937 401,903 342,836C283,769 253,667 253,531M568,1364l-113,-170l-206,0l216,280l192,0l225,-280l-204,0z"/>
   <glyph unicode="&#xF6;" horiz-adv-x="1139" d="M68,531C68,728 123,873 232,968C323,1047 435,1086 566,1086C712,1086 831,1038 924,943C1017,847 1063,715 1063,546C1063,409 1043,302 1002,224C961,145 901,84 823,41C744,-2 659,-24 566,-24C417,-24 297,24 206,119C114,214 68,352 68,531M253,531C253,395 283,293 342,226C401,158 476,124 566,124C655,124 730,158 789,226C848,294 878,398 878,537C878,668 848,768 789,836C729,903 655,937 566,937C476,937 401,903 342,836C283,769 253,667 253,531M285,1270l0,205l188,0l0,-205M658,1270l0,205l188,0l0,-205z"/>
   <glyph unicode="&#xF5;" horiz-adv-x="1139" d="M68,531C68,728 123,873 232,968C323,1047 435,1086 566,1086C712,1086 831,1038 924,943C1017,847 1063,715 1063,546C1063,409 1043,302 1002,224C961,145 901,84 823,41C744,-2 659,-24 566,-24C417,-24 297,24 206,119C114,214 68,352 68,531M253,531C253,395 283,293 342,226C401,158 476,124 566,124C655,124 730,158 789,226C848,294 878,398 878,537C878,668 848,768 789,836C729,903 655,937 566,937C476,937 401,903 342,836C283,769 253,667 253,531M231,1219C230,1288 249,1344 288,1385C326,1426 375,1447 434,1447C475,1447 532,1429 603,1393C642,1373 674,1363 697,1363C718,1363 735,1369 746,1381C757,1392 765,1415 770,1450l130,0C898,1374 879,1317 843,1279C806,1241 760,1222 704,1222C662,1222 607,1241 538,1278C493,1302 461,1314 440,1314C417,1314 399,1306 385,1290C370,1274 363,1250 364,1219z"/>
   <glyph unicode="&#xFA;" horiz-adv-x="1139" d="M831,0l0,156C748,36 636,-24 494,-24C431,-24 373,-12 319,12C264,36 224,66 198,103C171,139 153,183 142,236C135,271 131,327 131,404l0,658l180,0l0,-589C311,379 315,316 322,283C333,236 357,199 394,172C431,145 476,131 530,131C584,131 635,145 682,173C729,200 763,238 783,286C802,333 812,402 812,493l0,569l180,0l0,-1062M453,1194l133,280l236,0l-220,-280z"/>
   <glyph unicode="&#xF9;" horiz-adv-x="1139" d="M831,0l0,156C748,36 636,-24 494,-24C431,-24 373,-12 319,12C264,36 224,66 198,103C171,139 153,183 142,236C135,271 131,327 131,404l0,658l180,0l0,-589C311,379 315,316 322,283C333,236 357,199 394,172C431,145 476,131 530,131C584,131 635,145 682,173C729,200 763,238 783,286C802,333 812,402 812,493l0,569l180,0l0,-1062M728,1194l-145,0l-231,280l241,0z"/>
   <glyph unicode="&#xFB;" horiz-adv-x="1139" d="M831,0l0,156C748,36 636,-24 494,-24C431,-24 373,-12 319,12C264,36 224,66 198,103C171,139 153,183 142,236C135,271 131,327 131,404l0,658l180,0l0,-589C311,379 315,316 322,283C333,236 357,199 394,172C431,145 476,131 530,131C584,131 635,145 682,173C729,200 763,238 783,286C802,333 812,402 812,493l0,569l180,0l0,-1062M564,1364l-113,-170l-206,0l216,280l192,0l225,-280l-204,0z"/>
   <glyph unicode="&#xFC;" horiz-adv-x="1139" d="M831,0l0,156C748,36 636,-24 494,-24C431,-24 373,-12 319,12C264,36 224,66 198,103C171,139 153,183 142,236C135,271 131,327 131,404l0,658l180,0l0,-589C311,379 315,316 322,283C333,236 357,199 394,172C431,145 476,131 530,131C584,131 635,145 682,173C729,200 763,238 783,286C802,333 812,402 812,493l0,569l180,0l0,-1062M281,1270l0,205l188,0l0,-205M654,1270l0,205l188,0l0,-205z"/>
   <glyph unicode="&#x2020;" horiz-adv-x="1139" d="M472,-346l0,1212l-399,0l0,160l399,0l0,406l180,0l0,-406l402,0l0,-160l-402,0l0,-1212z"/>
   <glyph unicode="&#xB0;" horiz-adv-x="819" d="M128,1214C128,1291 155,1356 210,1410C264,1464 329,1491 405,1491C482,1491 548,1464 602,1410C656,1356 683,1291 683,1214C683,1137 656,1072 602,1018C547,963 482,936 405,936C329,936 264,963 210,1017C155,1071 128,1137 128,1214M237,1214C237,1167 254,1128 287,1095C320,1062 359,1045 406,1045C452,1045 492,1062 525,1095C558,1128 574,1167 574,1214C574,1261 558,1301 525,1334C492,1367 452,1383 406,1383C359,1383 320,1367 287,1334C254,1301 237,1261 237,1214z"/>
   <glyph unicode="&#xA2;" horiz-adv-x="1139" d="M744,894l-222,-766C544,122 564,119 583,119C652,119 712,143 763,190C813,237 844,304 855,389l179,-20C1012,246 960,149 878,78C795,7 698,-28 586,-28C553,-28 519,-23 483,-14l-118,-395l-112,32l115,398C291,58 229,119 180,205C131,290 107,397 107,526C107,645 127,747 166,832C205,917 263,980 341,1023C418,1066 497,1087 578,1087C602,1087 635,1084 678,1079l113,387l110,-32l-112,-387C855,1018 906,980 941,932C976,883 1001,823 1015,750l-175,-27C823,798 791,855 744,894M638,940C617,942 600,943 588,943C533,943 482,928 435,898C387,867 351,820 328,757C304,693 292,619 292,535C292,447 303,373 324,312C345,251 376,206 415,177z"/>
   <glyph unicode="&#xA3;" horiz-adv-x="1139" d="M396,809l315,0l0,-148l-284,0C440,632 446,602 446,573C446,515 432,454 405,389C377,324 331,258 268,191C321,206 369,213 412,213C467,213 530,205 599,188C714,161 791,147 832,147C881,147 945,166 1024,203l58,-165C1021,12 973,-5 940,-13C906,-21 872,-25 839,-25C811,-25 783,-22 754,-17C736,-14 693,-1 625,20C556,41 512,53 492,57C461,62 429,65 398,65C350,65 299,57 245,40C190,23 141,1 96,-28l-69,173C91,180 145,231 190,297C235,362 257,442 257,537C257,578 251,619 240,661l-196,0l0,148l154,0C176,884 162,938 156,973C150,1007 147,1040 147,1073C147,1212 198,1320 301,1398C384,1460 484,1491 601,1491C722,1491 821,1458 900,1392C978,1325 1026,1232 1044,1112l-179,-27C855,1165 825,1228 776,1274C726,1320 666,1343 597,1343C523,1343 462,1319 413,1272C364,1224 339,1166 339,1099C339,1025 358,928 396,809z"/>
   <glyph unicode="&#xA7;" horiz-adv-x="1139" d="M143,-70l181,26C343,-131 372,-191 413,-226C454,-261 509,-279 579,-279C647,-279 700,-262 739,-227C777,-192 796,-152 796,-105C796,-71 784,-40 760,-11C719,39 605,121 420,234C321,295 253,342 214,377C175,411 143,451 118,498C93,545 81,593 81,644C81,708 101,766 141,818C181,870 236,906 306,927C259,972 225,1014 206,1053C187,1091 177,1132 177,1175C177,1260 210,1334 277,1397C344,1460 432,1491 542,1491C667,1491 764,1461 834,1402C904,1343 946,1257 960,1144l-187,-19C759,1206 735,1263 700,1295C665,1327 617,1343 558,1343C497,1343 447,1327 410,1294C372,1261 353,1224 353,1184C353,1149 365,1117 389,1088C426,1043 528,969 695,868C800,804 870,757 907,727C954,687 989,646 1012,603C1034,560 1045,514 1045,464C1045,389 1021,324 972,271C944,240 893,209 818,178C871,137 911,94 938,47C964,0 977,-50 977,-103C977,-162 960,-217 927,-269C894,-322 846,-362 783,-389C720,-417 653,-431 580,-431C453,-431 352,-399 277,-335C202,-272 158,-183 143,-70M728,244C777,269 814,299 839,333C863,366 875,399 875,431C875,469 858,509 823,551C788,593 713,649 598,720C507,776 439,822 394,858C340,827 302,797 279,766C256,735 244,701 244,664C244,622 259,582 290,544C321,506 390,455 497,392C586,339 663,290 728,244z"/>
   <glyph unicode="&#x2022;" horiz-adv-x="717" d="M109,718C109,788 134,848 184,897C233,946 293,971 362,971C432,971 492,946 542,897C591,848 616,788 616,718C616,648 591,588 542,539C492,489 432,464 362,464C293,464 233,489 184,539C134,588 109,648 109,718z"/>
   <glyph unicode="&#xB6;" horiz-adv-x="1100" d="M405,-407l0,1045C280,645 182,685 110,760C37,834 1,929 1,1044C1,1173 41,1275 122,1352C202,1428 319,1466 474,1466l633,0l0,-173l-144,0l0,-1700l-170,0l0,1700l-223,0l0,-1700z"/>
   <glyph unicode="&#xDF;" horiz-adv-x="1251" d="M153,0l0,999C153,1121 168,1215 198,1281C227,1346 277,1398 346,1435C415,1472 493,1491 580,1491C695,1491 786,1462 852,1405C918,1347 951,1280 951,1204C951,1170 945,1135 933,1099C921,1063 900,1018 869,965C838,911 819,874 811,853C803,832 799,813 799,797C799,776 806,755 821,734C835,713 875,680 942,637C1033,578 1093,530 1123,494C1166,443 1187,382 1187,312C1187,219 1153,140 1085,74C1016,8 929,-25 822,-25C738,-25 664,-2 601,43C538,88 490,145 459,216l155,72C647,226 681,183 714,159C747,135 782,123 819,123C870,123 913,140 949,175C985,210 1003,250 1003,297C1003,334 992,366 971,393C957,410 920,440 859,481C748,557 680,614 654,652C627,690 614,729 614,769C614,795 619,821 628,848C637,875 658,917 693,976C727,1035 749,1079 760,1108C771,1137 776,1163 776,1186C776,1227 758,1264 722,1296C685,1327 637,1343 576,1343C505,1343 446,1321 401,1277C356,1233 333,1138 333,991l0,-991z"/>
   <glyph unicode="&#xAE;" horiz-adv-x="1509" d="M758,1491C885,1491 1008,1459 1129,1394C1250,1329 1344,1236 1411,1115C1478,994 1512,867 1512,736C1512,606 1479,481 1413,361C1346,241 1253,148 1134,82C1014,15 889,-18 758,-18C627,-18 502,15 383,82C263,148 170,241 103,361C36,481 3,606 3,736C3,867 37,994 105,1115C172,1236 266,1329 387,1394C508,1459 631,1491 758,1491M758,1366C652,1366 549,1339 449,1285C348,1230 270,1153 213,1052C156,951 128,845 128,736C128,627 156,523 212,424C267,324 345,246 445,191C545,135 649,107 758,107C867,107 971,135 1071,191C1171,246 1249,324 1304,424C1359,523 1387,627 1387,736C1387,845 1359,951 1303,1052C1246,1153 1168,1230 1067,1285C966,1339 863,1366 758,1366M427,319l0,812l279,0C801,1131 870,1124 913,1109C956,1094 990,1067 1015,1030C1040,993 1053,953 1053,911C1053,852 1032,800 990,756C947,712 891,687 821,682C850,670 873,656 890,639C923,607 963,553 1010,478l99,-159l-160,0l-72,128C820,548 775,611 740,636C716,655 681,664 635,664l-77,0l0,-345M558,776l159,0C793,776 845,787 873,810C900,833 914,863 914,900C914,924 907,946 894,965C881,984 862,998 839,1007C815,1016 771,1021 707,1021l-149,0z"/>
   <glyph unicode="&#xA9;" horiz-adv-x="1509" d="M758,1491C885,1491 1008,1459 1129,1394C1250,1329 1344,1236 1411,1115C1478,994 1512,867 1512,736C1512,606 1479,481 1413,361C1346,241 1253,148 1134,82C1014,15 889,-18 758,-18C627,-18 502,15 383,82C263,148 170,241 103,361C36,481 3,606 3,736C3,867 37,994 105,1115C172,1236 266,1329 387,1394C508,1459 631,1491 758,1491M758,1366C652,1366 549,1339 449,1285C348,1230 270,1153 213,1052C156,951 128,845 128,736C128,627 156,523 212,424C267,324 345,246 445,191C545,135 649,107 758,107C867,107 971,135 1071,191C1171,246 1249,324 1304,424C1359,523 1387,627 1387,736C1387,845 1359,951 1303,1052C1246,1153 1168,1230 1067,1285C966,1339 863,1366 758,1366M1000,614l123,-36C1103,495 1061,428 996,379C931,329 852,304 759,304C642,304 546,342 473,418C400,494 363,599 363,734C363,822 380,899 413,964C446,1029 494,1078 556,1111C617,1144 688,1160 767,1160C856,1160 929,1139 988,1097C1047,1054 1087,997 1108,924l-119,-29C969,944 940,982 901,1009C862,1035 816,1048 763,1048C686,1048 623,1021 574,966C524,911 499,833 499,731C499,629 523,552 570,500C617,447 677,421 752,421C812,421 865,438 910,473C955,508 985,555 1000,614z"/>
   <glyph unicode="&#x2122;" horiz-adv-x="2048" d="M489,651l0,694l-264,0l0,121l666,0l0,-121l-266,0l0,-694M982,651l0,815l200,0l206,-651l199,651l196,0l0,-815l-124,0l0,684l-210,-684l-123,0l-219,694l0,-694z"/>
   <glyph unicode="&#xB4;" horiz-adv-x="682" d="M222,1194l133,280l236,0l-220,-280z"/>
   <glyph unicode="&#xA8;" horiz-adv-x="682" d="M61,1270l0,205l188,0l0,-205M434,1270l0,205l188,0l0,-205z"/>
   <glyph unicode="&#x2260;" horiz-adv-x="1124" d="M495,417l-194,-445l-136,0l195,445l-282,0l0,168l356,0l122,277l-478,0l0,168l551,0l196,444l134,0l-195,-444l282,0l0,-168l-356,0l-121,-277l477,0l0,-168z"/>
   <glyph unicode="&#xC6;" horiz-adv-x="2048" d="M1,0l705,1466l1203,0l0,-173l-737,0l0,-451l685,0l0,-172l-685,0l0,-497l764,0l0,-173l-959,0l0,423l-566,0l-200,-423M493,595l484,0l0,698l-145,0z"/>
   <glyph unicode="&#xD8;" horiz-adv-x="1593" d="M1250,1332l168,188l99,-84l-176,-198C1398,1153 1437,1078 1457,1014C1484,930 1497,836 1497,732C1497,582 1467,448 1406,331C1345,214 1260,125 1151,65C1041,5 924,-25 801,-25C709,-25 626,-12 551,14C494,34 427,72 350,129l-168,-188l-99,84l176,197C194,321 150,406 128,477C106,547 95,631 95,730C95,881 125,1015 185,1133C245,1250 329,1339 438,1400C546,1461 666,1491 799,1491C888,1491 967,1479 1034,1456C1101,1432 1173,1391 1250,1332M1130,1197C1067,1246 1013,1280 966,1298C919,1316 863,1325 800,1325C654,1325 533,1276 438,1177C343,1078 295,930 295,733C295,656 302,587 317,527C328,482 350,427 384,362M1212,1094l-743,-832C520,220 568,191 611,174C668,152 729,141 795,141C940,141 1060,192 1155,295C1250,398 1297,542 1297,727C1297,866 1269,988 1212,1094z"/>
   <glyph unicode="&#x221E;" horiz-adv-x="1460" d="M689,812C759,900 814,958 853,986C906,1025 963,1044 1022,1044C1092,1044 1158,1019 1219,968C1280,917 1310,836 1310,723C1310,644 1299,583 1276,538C1253,493 1218,456 1170,429C1122,402 1073,388 1022,388C963,388 906,407 853,445C814,474 759,532 689,620C598,506 502,449 400,449C333,449 275,475 227,526C178,577 154,640 154,716C154,791 178,855 227,906C275,957 333,983 400,983C502,983 598,926 689,812M758,717C816,627 869,565 917,532C948,510 982,499 1020,499C1071,499 1113,518 1148,555C1182,592 1199,645 1199,713C1199,784 1182,838 1147,875C1112,912 1068,931 1016,931C983,931 953,922 924,903C885,877 830,815 758,717M620,716C567,783 524,826 492,845C460,864 429,873 400,873C361,873 329,859 304,832C278,805 265,767 265,719C265,672 278,634 305,606C332,577 364,563 402,563C469,563 542,614 620,716z"/>
   <glyph unicode="&#xB1;" horiz-adv-x="1124" d="M477,260l0,403l-399,0l0,167l399,0l0,399l170,0l0,-399l399,0l0,-167l-399,0l0,-403M1046,0l-968,0l0,168l968,0z"/>
   <glyph unicode="&#x2264;" horiz-adv-x="1124" d="M77,762l0,168l971,410l0,-180l-770,-315l770,-319l0,-179M1046,106l-968,0l0,167l968,0z"/>
   <glyph unicode="&#x2265;" horiz-adv-x="1124" d="M1048,762l-971,-415l0,179l769,319l-769,315l0,180l971,-410M1046,106l-968,0l0,167l968,0z"/>
   <glyph unicode="&#xA5;" horiz-adv-x="1139" d="M477,0l0,325l-415,0l0,139l415,0l0,143l-415,0l0,148l341,0l-406,711l200,0l290,-516C520,891 545,840 563,796C578,831 606,886 645,959l274,507l214,0l-405,-711l341,0l0,-148l-412,0l0,-143l412,0l0,-139l-412,0l0,-325z"/>
   <glyph unicode="&#xB5;" horiz-adv-x="1180" d="M1018,1062l0,-1062l-161,0l0,126C822,73 788,36 754,16C707,-11 653,-25 591,-25C536,-25 487,-14 444,8C412,25 377,58 338,107l0,-514l-178,0l0,1469l178,0l0,-450C338,449 347,343 364,295C381,246 410,208 449,180C488,152 532,138 583,138C636,138 684,153 726,182C768,211 798,249 815,296C832,342 841,446 841,609l0,453z"/>
   <glyph unicode="&#x2202;" horiz-adv-x="1012" d="M426,1138l-135,60C338,1303 394,1378 459,1423C524,1468 588,1491 651,1491C702,1491 748,1478 789,1452C830,1425 860,1395 881,1361C912,1308 936,1246 951,1174C966,1102 973,1019 973,926C973,734 944,563 887,414C829,264 751,153 653,82C555,11 459,-25 364,-25C273,-25 199,5 142,66C85,127 56,212 56,322C56,473 107,602 209,709C340,847 557,919 858,924C855,1036 847,1121 834,1180C821,1239 798,1284 766,1316C734,1347 696,1363 653,1363C612,1363 571,1347 532,1314C493,1281 457,1222 426,1138M854,796C691,787 572,764 497,728C421,692 359,633 310,552C261,470 236,387 236,303C236,248 253,202 287,166C321,130 361,112 406,112C456,112 509,130 566,167C644,218 708,296 757,402C806,507 838,639 854,796z"/>
   <glyph unicode="&#x2211;" horiz-adv-x="1460" d="M139,1491l1237,0l0,-164l-988,0l607,-775l-649,-822l1040,0l0,-161l-1264,0l0,187l620,788l-603,772z"/>
   <glyph unicode="&#x220F;" horiz-adv-x="1686" d="M161,1491l1362,0l0,-1922l-191,0l0,1748l-978,0l0,-1748l-193,0z"/>
   <glyph unicode="&#x222B;" horiz-adv-x="561" d="M201,948l17,531C224,1581 241,1666 268,1733C286,1776 311,1809 343,1831C374,1852 405,1863 435,1863C468,1863 498,1852 523,1830C548,1807 560,1783 560,1756C560,1725 551,1700 534,1681C516,1662 494,1652 468,1652C445,1652 419,1664 392,1688C377,1701 363,1708 352,1708C341,1708 331,1703 324,1694C316,1684 312,1667 312,1644C312,1616 315,1568 321,1499C346,1226 358,1004 358,834C358,789 353,593 342,246C337,49 307,-84 252,-153C216,-198 171,-220 118,-220C83,-220 55,-209 33,-186C11,-163 0,-134 0,-99C0,-69 9,-45 26,-27C43,-9 64,0 90,0C117,0 140,-11 159,-32C178,-53 195,-64 208,-64C219,-64 229,-59 236,-50C243,-41 247,-25 247,-3C247,25 244,65 238,117C213,327 201,604 201,948z"/>
   <glyph unicode="&#xAA;" horiz-adv-x="758" d="M548,853C467,782 381,746 292,746C217,746 157,767 113,808C69,849 47,901 47,965C47,997 52,1025 63,1049C74,1073 90,1094 111,1113C132,1132 159,1147 192,1158C215,1165 248,1172 291,1179l147,22C486,1210 518,1217 534,1221C533,1268 529,1299 520,1315C511,1331 495,1345 472,1357C448,1368 416,1374 377,1374C324,1374 285,1363 259,1342C233,1320 217,1289 211,1249l-137,34C82,1342 111,1392 162,1432C213,1471 285,1491 379,1491C488,1491 566,1471 611,1430C656,1389 678,1328 678,1249l0,-240l-1,-61C677,859 691,797 718,764l-148,0C557,791 549,820 548,853M533,1104C498,1095 434,1083 341,1068C281,1059 242,1046 224,1029C205,1012 196,990 196,965C196,938 207,914 230,895C253,876 285,866 326,866C375,866 417,879 453,905C489,931 513,963 525,1001C530,1014 532,1049 533,1104z"/>
   <glyph unicode="&#xBA;" horiz-adv-x="748" d="M373,1491C470,1491 549,1458 610,1391C671,1324 701,1232 701,1115C701,998 670,907 609,840C548,773 469,740 374,740C277,740 198,773 137,838C76,903 45,994 45,1111C45,1231 76,1324 137,1391C198,1458 276,1491 373,1491M373,1358C319,1358 276,1339 243,1301C210,1263 193,1201 193,1115C193,1031 210,970 244,931C277,892 320,872 373,872C426,872 470,892 503,931C536,970 553,1033 553,1120C553,1201 536,1261 503,1300C469,1339 426,1358 373,1358z"/>
   <glyph unicode="&#x2126;" horiz-adv-x="1573" d="M496,160C424,205 369,248 331,290C273,354 228,429 197,516C166,602 150,697 150,802C150,933 177,1053 230,1163C283,1272 360,1356 461,1415C562,1474 677,1503 808,1503C1032,1503 1204,1418 1324,1249C1411,1125 1455,976 1455,801C1455,689 1437,590 1401,504C1365,417 1318,343 1260,281C1225,242 1175,202 1111,160l364,6l0,-166l-575,0l0,177C953,204 995,230 1024,255C1072,296 1113,344 1146,400C1179,456 1205,516 1222,579C1239,642 1247,708 1247,777C1247,869 1231,962 1198,1055C1165,1148 1115,1218 1048,1267C981,1316 899,1340 804,1340C677,1340 578,1300 508,1220C411,1107 362,961 362,780C362,635 392,511 453,408C514,304 597,228 704,180l0,-180l-577,0l0,168z"/>
   <glyph unicode="&#xE6;" horiz-adv-x="1821" d="M1734,325C1701,214 1644,128 1564,67C1484,6 1385,-24 1266,-24C1181,-24 1107,-8 1044,24C980,56 922,106 871,174C802,106 732,56 661,24C590,-8 513,-24 431,-24C316,-24 227,6 164,65C100,124 68,195 68,280C68,337 85,391 118,442C151,492 197,530 256,556C315,582 409,603 538,620C638,633 722,650 790,669C791,686 791,699 791,710C791,794 774,853 739,887C704,920 642,937 555,937C497,937 448,930 408,916C368,902 339,882 320,857C301,831 285,790 272,733l-175,21C116,832 143,894 178,940C213,985 263,1021 328,1047C393,1073 470,1086 557,1086C668,1086 758,1069 826,1036C865,1017 898,986 925,943C968,990 1016,1025 1070,1050C1124,1074 1189,1086 1266,1086C1374,1086 1463,1060 1534,1008C1605,955 1656,886 1689,800C1722,714 1738,629 1738,546C1738,533 1737,513 1736,485l-767,0C970,389 982,319 1005,276C1027,233 1063,197 1112,168C1161,139 1214,124 1273,124C1342,124 1400,144 1448,183C1495,222 1528,278 1546,349M969,633l584,0C1544,738 1514,815 1463,864C1412,913 1346,937 1265,937C1181,937 1112,910 1059,857C1005,804 975,729 969,633M793,533C740,510 633,486 471,460C398,449 347,432 318,409C279,378 259,337 259,286C259,239 277,199 312,167C347,134 399,118 466,118C543,118 610,137 667,175C724,213 761,260 778,317C788,352 793,424 793,533z"/>
   <glyph unicode="&#xF8;" horiz-adv-x="1251" d="M919,999l99,128l96,-70l-107,-138C1049,862 1078,810 1093,763C1114,696 1124,619 1124,530C1124,330 1068,183 955,89C864,14 754,-24 625,-24C519,-24 425,3 344,56l-105,-135l-94,71l108,141C214,178 186,224 169,269C142,342 129,424 129,516C129,717 178,862 276,952C374,1041 489,1086 621,1086C676,1086 726,1079 772,1065C818,1051 867,1029 919,999M818,867C757,914 694,937 627,937C538,937 464,903 404,835C344,767 314,666 314,531C314,431 331,347 366,280M893,770l-449,-583C496,145 555,124 620,124C713,124 789,158 850,226C910,294 940,396 940,532C940,583 936,627 928,665C923,693 911,728 893,770z"/>
   <glyph unicode="&#xBF;" horiz-adv-x="1251" d="M733,1062l0,-205l-205,0l0,205M721,701C722,678 722,661 722,650C722,577 712,514 692,463C677,424 654,385 621,346C597,317 554,276 492,221C429,166 389,123 371,90C352,57 343,22 343,-17C343,-88 370,-149 425,-202C480,-255 547,-281 626,-281C702,-281 766,-257 818,-209C869,-161 903,-86 919,15l184,-21C1086,-141 1037,-246 955,-319C872,-392 764,-429 629,-429C485,-429 371,-390 286,-312C201,-234 158,-140 158,-29C158,36 173,95 203,148C232,201 291,267 378,344C437,397 476,435 494,460C512,485 525,513 534,545C542,577 547,629 548,701z"/>
   <glyph unicode="&#xA1;" horiz-adv-x="682" d="M447,1062l0,-205l-207,0l0,205M400,697l55,-776l0,-325l-223,0l0,325l52,776z"/>
   <glyph unicode="&#xAC;" horiz-adv-x="1196" d="M1082,424l-170,0l0,438l-798,0l0,168l968,0z"/>
   <glyph unicode="&#x221A;" horiz-adv-x="1124" d="M1050,1869l74,0l-312,-1947l-496,1021l-198,-91l-34,64l301,151l405,-823z"/>
   <glyph unicode="&#x192;" horiz-adv-x="1139" d="M46,-405l35,155C148,-265 199,-272 233,-272C269,-272 297,-263 316,-244C335,-225 350,-184 361,-120l177,1042l-201,0l24,140l201,0l24,133C601,1275 616,1330 631,1360C652,1401 681,1434 720,1457C758,1480 808,1492 870,1492C923,1492 995,1479 1085,1454l-35,-153C981,1317 930,1325 896,1325C859,1325 831,1316 812,1298C793,1279 778,1235 765,1165l-19,-103l204,0l-25,-140l-204,0l-191,-1092C513,-269 484,-337 443,-374C402,-412 345,-431 270,-431C207,-431 133,-422 46,-405z"/>
   <glyph unicode="&#x2248;" horiz-adv-x="1124" d="M51,738l0,205C122,1023 214,1063 329,1063C369,1063 411,1057 455,1046C498,1035 561,1011 643,976C689,956 724,943 747,938C770,932 793,929 816,929C859,929 904,942 951,968C997,994 1038,1027 1074,1066l0,-212C1031,814 988,785 945,767C901,749 852,740 797,740C757,740 719,745 683,754C647,763 589,785 510,821C431,856 365,874 312,874C269,874 229,865 192,847C154,828 107,792 51,738M51,376l0,205C122,661 214,701 329,701C369,701 411,695 455,684C498,673 561,649 643,614C689,595 724,582 747,576C770,570 793,567 816,567C859,567 904,580 951,606C997,632 1038,665 1074,704l0,-212C1031,452 988,423 945,405C901,387 852,378 797,378C757,378 719,383 683,392C647,401 589,424 510,459C431,494 365,512 312,512C269,512 229,503 192,485C154,466 107,430 51,376z"/>
   <glyph unicode="&#x2206;" horiz-adv-x="1253" d="M1226,0l-1200,0l628,1387M990,82l-399,967l-440,-967z"/>
   <glyph unicode="&#xAB;" horiz-adv-x="1139" d="M340,528l259,-456l-146,0l-319,456l319,456l148,0M727,528l264,-456l-152,0l-313,456l313,456l152,0z"/>
   <glyph unicode="&#xBB;" horiz-adv-x="1139" d="M791,528l-261,456l148,0l319,-456l-319,-456l-147,0M404,528l-264,456l151,0l314,-456l-314,-456l-151,0z"/>
   <glyph unicode="&#x2026;" horiz-adv-x="2048" d="M239,0l0,205l205,0l0,-205M922,0l0,205l205,0l0,-205M1604,0l0,205l206,0l0,-205z"/>
   <glyph unicode="&#xC0;" horiz-adv-x="1366" d="M-3,0l563,1466l209,0l600,-1466l-221,0l-171,444l-613,0l-161,-444M420,602l497,0l-153,406C717,1131 683,1233 660,1312C641,1218 615,1125 581,1032M824,1556l-145,0l-231,280l241,0z"/>
   <glyph unicode="&#xC3;" horiz-adv-x="1366" d="M-3,0l563,1466l209,0l600,-1466l-221,0l-171,444l-613,0l-161,-444M420,602l497,0l-153,406C717,1131 683,1233 660,1312C641,1218 615,1125 581,1032M349,1556C348,1625 367,1681 406,1722C444,1763 493,1784 552,1784C593,1784 650,1766 721,1730C760,1710 792,1700 815,1700C836,1700 853,1706 864,1718C875,1729 883,1752 888,1787l130,0C1016,1711 997,1654 961,1616C924,1578 878,1559 822,1559C780,1559 725,1578 656,1615C611,1639 579,1651 558,1651C535,1651 517,1643 503,1627C488,1611 481,1587 482,1556z"/>
   <glyph unicode="&#xD5;" horiz-adv-x="1593" d="M99,714C99,957 164,1148 295,1286C426,1423 594,1492 801,1492C936,1492 1058,1460 1167,1395C1276,1330 1359,1240 1416,1125C1473,1009 1501,878 1501,731C1501,582 1471,449 1411,332C1351,215 1266,126 1156,66C1046,5 927,-25 800,-25C662,-25 539,8 430,75C321,142 239,233 183,348C127,463 99,585 99,714M299,711C299,534 347,395 442,294C537,192 656,141 799,141C945,141 1065,192 1160,295C1254,398 1301,543 1301,732C1301,851 1281,956 1241,1045C1200,1134 1141,1203 1064,1252C986,1301 899,1325 802,1325C665,1325 547,1278 448,1184C349,1089 299,932 299,711M466,1556C465,1625 484,1681 523,1722C561,1763 610,1784 669,1784C710,1784 767,1766 838,1730C877,1710 909,1700 932,1700C953,1700 970,1706 981,1718C992,1729 1000,1752 1005,1787l130,0C1133,1711 1114,1654 1078,1616C1041,1578 995,1559 939,1559C897,1559 842,1578 773,1615C728,1639 696,1651 675,1651C652,1651 634,1643 620,1627C605,1611 598,1587 599,1556z"/>
   <glyph unicode="&#x152;" horiz-adv-x="2048" d="M1983,173l0,-173l-862,0l0,212C1031,54 898,-25 721,-25C520,-25 368,52 265,207C174,344 129,520 129,735C129,950 176,1129 271,1274C366,1419 516,1491 721,1491C897,1491 1030,1417 1121,1268l0,198l831,0l0,-173l-650,0l0,-448l599,0l0,-172l-599,0l0,-500M720,1334C653,1334 587,1312 523,1269C459,1226 411,1160 378,1072C345,983 329,866 329,720C329,518 368,369 445,274C522,179 613,131 720,131C827,131 919,179 996,274C1072,369 1110,526 1110,745C1110,949 1072,1098 995,1193C918,1287 826,1334 720,1334z"/>
   <glyph unicode="&#x153;" horiz-adv-x="1933" d="M978,175C927,109 869,59 803,26C737,-7 663,-24 582,-24C432,-24 311,24 220,119C128,214 82,347 82,518C82,631 102,732 141,821C180,910 239,976 319,1020C398,1064 487,1086 584,1086C676,1086 756,1067 825,1029C893,990 944,942 978,883C1021,945 1076,994 1143,1031C1210,1068 1284,1086 1367,1086C1514,1086 1632,1036 1723,935C1814,834 1858,684 1857,483l-784,0C1075,372 1106,285 1166,221C1225,156 1300,124 1389,124C1455,124 1512,143 1560,180C1607,217 1642,272 1663,346l180,-26C1814,210 1761,125 1683,66C1604,6 1505,-24 1386,-24C1297,-24 1217,-6 1146,29C1075,64 1019,112 978,175M267,533C267,409 291,315 338,250C399,166 479,124 577,124C663,124 737,159 798,230C859,301 890,402 890,535C890,667 860,767 800,836C739,904 665,938 577,938C519,938 466,922 417,889C368,856 331,808 306,744C280,680 267,610 267,533M1080,631l587,0C1659,732 1629,808 1576,860C1523,912 1457,938 1378,938C1298,938 1230,911 1175,856C1119,801 1087,726 1080,631z"/>
   <glyph unicode="&#x2013;" horiz-adv-x="1139" d="M-4,458l0,145l1139,0l0,-145z"/>
   <glyph unicode="&#x2014;" horiz-adv-x="2048" d="M0,458l0,145l2048,0l0,-145z"/>
   <glyph unicode="&#x201C;" horiz-adv-x="682" d="M276,1220l0,-209l-193,0l0,165C83,1265 94,1330 115,1370C143,1423 187,1464 248,1491l44,-70C255,1406 228,1383 211,1353C194,1322 184,1278 182,1220M586,1220l0,-209l-193,0l0,165C393,1265 404,1330 425,1370C453,1423 497,1464 558,1491l44,-70C565,1406 538,1383 521,1353C504,1322 494,1278 492,1220z"/>
   <glyph unicode="&#x201D;" horiz-adv-x="682" d="M87,1272l0,209l193,0l0,-165C280,1227 270,1162 249,1123C220,1069 176,1028 115,1001l-44,71C107,1087 134,1110 152,1142C169,1173 179,1217 181,1272M397,1272l0,209l193,0l0,-165C590,1227 580,1162 559,1123C530,1069 486,1028 425,1001l-44,71C417,1087 444,1110 462,1142C479,1173 489,1217 491,1272z"/>
   <glyph unicode="&#x2018;" horiz-adv-x="455" d="M321,1220l0,-209l-193,0l0,165C128,1265 139,1330 160,1370C188,1423 232,1464 293,1491l44,-70C300,1406 273,1383 256,1353C239,1322 229,1278 227,1220z"/>
   <glyph unicode="&#x2019;" horiz-adv-x="455" d="M124,1272l0,209l193,0l0,-165C317,1227 307,1162 286,1123C257,1069 213,1028 152,1001l-44,71C144,1087 171,1110 189,1142C206,1173 216,1217 218,1272z"/>
   <glyph unicode="&#xF7;" horiz-adv-x="1124" d="M459,922l0,205l205,0l0,-205M1046,639l-968,0l0,168l968,0M459,319l0,205l205,0l0,-205z"/>
   <glyph unicode="&#x25CA;" horiz-adv-x="1012" d="M549,1422l418,-713l-418,-709l-111,0l-391,709l391,713M495,1325l-340,-616l340,-615l359,615z"/>
   <glyph unicode="&#xFF;" horiz-adv-x="1024" d="M127,-409l-20,169C146,-251 181,-256 210,-256C250,-256 282,-249 306,-236C330,-223 350,-204 365,-180C376,-162 395,-117 420,-46C423,-36 429,-21 436,-2l-403,1064l194,0l221,-615C477,369 502,287 525,201C546,284 570,364 599,443l227,619l180,0l-404,-1080C559,-135 525,-215 501,-259C469,-318 432,-362 391,-389C350,-417 300,-431 243,-431C208,-431 170,-424 127,-409M243,1270l0,205l188,0l0,-205M616,1270l0,205l188,0l0,-205z"/>
   <glyph unicode="&#x178;" horiz-adv-x="1366" d="M571,0l0,621l-565,845l236,0l289,-442C584,941 634,859 680,776C724,853 777,939 840,1035l284,431l226,0l-585,-845l0,-621M397,1556l0,205l188,0l0,-205M770,1556l0,205l188,0l0,-205z"/>
   <glyph unicode="&#x2044;" horiz-adv-x="342" d="M-455,-57l1101,1548l157,0l-1101,-1548z"/>
   <glyph unicode="&#x20AC;" horiz-adv-x="1139" d="M790,1325C678,1325 584,1298 508,1244C463,1212 422,1167 385,1108C348,1047 326,990 319,935l682,0l-27,-134l-671,0C302,787 302,774 302,761C302,710 302,679 303,669l644,0l-28,-134l-595,0C352,382 419,274 526,210C603,164 686,141 775,141C900,141 997,174 1067,239l0,-206C984,-6 892,-25 791,-25C490,-25 286,100 180,351C159,402 140,463 125,535l-153,0l28,134l105,0C103,697 102,727 102,760C102,773 102,787 103,801l-131,0l28,134l116,0C157,1152 265,1308 439,1403C546,1462 665,1491 794,1491C918,1491 1022,1464 1107,1410l-40,-186C986,1291 893,1325 790,1325z"/>
   <glyph unicode="&#x2039;" horiz-adv-x="682" d="M291,527l265,-455l-149,0l-315,455l315,457l149,0z"/>
   <glyph unicode="&#x203A;" horiz-adv-x="682" d="M357,530l-265,454l149,0l304,-448l-304,-464l-149,0z"/>
   <glyph unicode="&#xF001;" horiz-adv-x="1024" d="M183,0l0,923l-160,0l0,139l160,0l0,103C183,1270 206,1351 251,1407C296,1463 368,1491 466,1491C532,1491 593,1483 649,1468l-28,-152C586,1322 553,1325 524,1325C462,1325 420,1313 397,1288C374,1263 363,1211 363,1131l0,-69l206,0l0,-139l-206,0l0,-923M705,1259l0,207l180,0l0,-207M705,0l0,1062l180,0l0,-1062z"/>
   <glyph unicode="&#xF002;" horiz-adv-x="1024" d="M183,0l0,923l-160,0l0,139l160,0l0,103C183,1270 206,1351 251,1407C296,1463 368,1491 466,1491C532,1491 593,1483 649,1468l-28,-152C586,1322 553,1325 524,1325C462,1325 420,1313 397,1288C374,1263 363,1211 363,1131l0,-69l206,0l0,-139l-206,0l0,-923M703,0l0,1466l180,0l0,-1466z"/>
   <glyph unicode="&#x2021;" horiz-adv-x="1139" d="M475,-346l0,370l-402,0l0,161l402,0l0,725l-402,0l0,161l402,0l0,375l180,0l0,-375l403,0l0,-161l-403,0l0,-725l403,0l0,-161l-403,0l0,-370z"/>
   <glyph unicode="&#xB7;" horiz-adv-x="569" d="M185,619l0,205l205,0l0,-205z"/>
   <glyph unicode="&#x201A;" horiz-adv-x="455" d="M124,0l0,209l193,0l0,-165C317,-45 307,-110 286,-149C257,-203 213,-244 152,-271l-44,71C144,-185 171,-162 189,-130C206,-99 216,-55 218,0z"/>
   <glyph unicode="&#x201E;" horiz-adv-x="682" d="M87,0l0,209l193,0l0,-165C280,-45 270,-110 249,-149C220,-203 176,-244 115,-271l-44,71C107,-185 134,-162 152,-130C169,-99 179,-55 181,0M397,0l0,209l193,0l0,-165C590,-45 580,-110 559,-149C530,-203 486,-244 425,-271l-44,71C417,-185 444,-162 462,-130C479,-99 489,-55 491,0z"/>
   <glyph unicode="&#x2030;" horiz-adv-x="2048" d="M320,-54l601,1545l131,0l-600,-1545M37,1099C37,1232 63,1328 116,1389C168,1449 237,1479 323,1479C408,1479 478,1449 531,1388C584,1327 611,1232 611,1103C611,972 588,874 541,808C494,741 422,708 325,708C240,708 170,739 117,801C64,863 37,962 37,1099M185,1091C185,990 198,921 225,886C251,851 286,833 329,833C368,833 399,848 420,878C449,918 463,990 463,1093C463,1194 448,1266 419,1308C396,1339 365,1355 325,1355C284,1355 252,1340 230,1309C200,1267 185,1194 185,1091M763,336C763,469 789,565 842,626C894,686 963,716 1048,716C1133,716 1203,686 1257,625C1310,564 1337,469 1337,340C1337,209 1314,111 1267,45C1220,-21 1148,-54 1051,-54C966,-54 896,-23 843,39C790,100 763,199 763,336M911,328C911,227 924,159 951,124C977,88 1012,70 1055,70C1094,70 1125,85 1146,115C1175,156 1189,227 1189,330C1189,432 1174,504 1144,545C1121,576 1090,592 1051,592C1010,592 978,577 956,546C926,505 911,432 911,328M1437,336C1437,469 1463,565 1516,626C1568,686 1637,716 1723,716C1808,716 1878,686 1931,625C1984,564 2011,469 2011,340C2011,209 1988,111 1942,45C1895,-21 1823,-54 1725,-54C1640,-54 1570,-23 1517,39C1464,100 1437,199 1437,336M1585,328C1585,227 1598,159 1625,124C1651,88 1686,70 1729,70C1768,70 1799,85 1820,115C1849,156 1863,227 1863,330C1863,432 1848,504 1819,545C1796,576 1765,592 1725,592C1684,592 1652,577 1630,546C1600,505 1585,432 1585,328z"/>
   <glyph unicode="&#xC2;" horiz-adv-x="1366" d="M-3,0l563,1466l209,0l600,-1466l-221,0l-171,444l-613,0l-161,-444M420,602l497,0l-153,406C717,1131 683,1233 660,1312C641,1218 615,1125 581,1032M664,1726l-113,-170l-206,0l216,280l192,0l225,-280l-204,0z"/>
   <glyph unicode="&#xCA;" horiz-adv-x="1366" d="M162,0l0,1466l1060,0l0,-173l-866,0l0,-449l811,0l0,-172l-811,0l0,-499l900,0l0,-173M707,1726l-113,-170l-206,0l216,280l192,0l225,-280l-204,0z"/>
   <glyph unicode="&#xC1;" horiz-adv-x="1366" d="M-3,0l563,1466l209,0l600,-1466l-221,0l-171,444l-613,0l-161,-444M420,602l497,0l-153,406C717,1131 683,1233 660,1312C641,1218 615,1125 581,1032M541,1556l133,280l236,0l-220,-280z"/>
   <glyph unicode="&#xCB;" horiz-adv-x="1366" d="M162,0l0,1466l1060,0l0,-173l-866,0l0,-449l811,0l0,-172l-811,0l0,-499l900,0l0,-173M425,1556l0,205l188,0l0,-205M798,1556l0,205l188,0l0,-205z"/>
   <glyph unicode="&#xC8;" horiz-adv-x="1366" d="M162,0l0,1466l1060,0l0,-173l-866,0l0,-449l811,0l0,-172l-811,0l0,-499l900,0l0,-173M850,1556l-145,0l-231,280l241,0z"/>
   <glyph unicode="&#xCD;" horiz-adv-x="569" d="M191,0l0,1466l194,0l0,-1466M141,1556l133,280l236,0l-220,-280z"/>
   <glyph unicode="&#xCE;" horiz-adv-x="569" d="M191,0l0,1466l194,0l0,-1466M287,1726l-113,-170l-206,0l216,280l192,0l225,-280l-204,0z"/>
   <glyph unicode="&#xCF;" horiz-adv-x="569" d="M191,0l0,1466l194,0l0,-1466M4,1556l0,205l188,0l0,-205M377,1556l0,205l188,0l0,-205z"/>
   <glyph unicode="&#xCC;" horiz-adv-x="569" d="M191,0l0,1466l194,0l0,-1466M430,1556l-145,0l-231,280l241,0z"/>
   <glyph unicode="&#xD3;" horiz-adv-x="1593" d="M99,714C99,957 164,1148 295,1286C426,1423 594,1492 801,1492C936,1492 1058,1460 1167,1395C1276,1330 1359,1240 1416,1125C1473,1009 1501,878 1501,731C1501,582 1471,449 1411,332C1351,215 1266,126 1156,66C1046,5 927,-25 800,-25C662,-25 539,8 430,75C321,142 239,233 183,348C127,463 99,585 99,714M299,711C299,534 347,395 442,294C537,192 656,141 799,141C945,141 1065,192 1160,295C1254,398 1301,543 1301,732C1301,851 1281,956 1241,1045C1200,1134 1141,1203 1064,1252C986,1301 899,1325 802,1325C665,1325 547,1278 448,1184C349,1089 299,932 299,711M677,1556l133,280l236,0l-220,-280z"/>
   <glyph unicode="&#xD4;" horiz-adv-x="1593" d="M99,714C99,957 164,1148 295,1286C426,1423 594,1492 801,1492C936,1492 1058,1460 1167,1395C1276,1330 1359,1240 1416,1125C1473,1009 1501,878 1501,731C1501,582 1471,449 1411,332C1351,215 1266,126 1156,66C1046,5 927,-25 800,-25C662,-25 539,8 430,75C321,142 239,233 183,348C127,463 99,585 99,714M299,711C299,534 347,395 442,294C537,192 656,141 799,141C945,141 1065,192 1160,295C1254,398 1301,543 1301,732C1301,851 1281,956 1241,1045C1200,1134 1141,1203 1064,1252C986,1301 899,1325 802,1325C665,1325 547,1278 448,1184C349,1089 299,932 299,711M798,1726l-113,-170l-206,0l216,280l192,0l225,-280l-204,0z"/>
   <glyph unicode="&#xD2;" horiz-adv-x="1593" d="M99,714C99,957 164,1148 295,1286C426,1423 594,1492 801,1492C936,1492 1058,1460 1167,1395C1276,1330 1359,1240 1416,1125C1473,1009 1501,878 1501,731C1501,582 1471,449 1411,332C1351,215 1266,126 1156,66C1046,5 927,-25 800,-25C662,-25 539,8 430,75C321,142 239,233 183,348C127,463 99,585 99,714M299,711C299,534 347,395 442,294C537,192 656,141 799,141C945,141 1065,192 1160,295C1254,398 1301,543 1301,732C1301,851 1281,956 1241,1045C1200,1134 1141,1203 1064,1252C986,1301 899,1325 802,1325C665,1325 547,1278 448,1184C349,1089 299,932 299,711M916,1556l-145,0l-231,280l241,0z"/>
   <glyph unicode="&#xDA;" horiz-adv-x="1479" d="M1120,1466l194,0l0,-847C1314,472 1297,355 1264,268C1231,181 1171,111 1084,57C997,2 882,-25 741,-25C604,-25 491,-1 404,46C317,93 254,162 217,252C180,341 161,464 161,619l0,847l194,0l0,-846C355,493 367,399 391,339C414,278 455,232 513,199C570,166 641,150 724,150C867,150 968,182 1029,247C1090,312 1120,436 1120,620M614,1556l133,280l236,0l-220,-280z"/>
   <glyph unicode="&#xDB;" horiz-adv-x="1479" d="M1120,1466l194,0l0,-847C1314,472 1297,355 1264,268C1231,181 1171,111 1084,57C997,2 882,-25 741,-25C604,-25 491,-1 404,46C317,93 254,162 217,252C180,341 161,464 161,619l0,847l194,0l0,-846C355,493 367,399 391,339C414,278 455,232 513,199C570,166 641,150 724,150C867,150 968,182 1029,247C1090,312 1120,436 1120,620M736,1726l-113,-170l-206,0l216,280l192,0l225,-280l-204,0z"/>
   <glyph unicode="&#xD9;" horiz-adv-x="1479" d="M1120,1466l194,0l0,-847C1314,472 1297,355 1264,268C1231,181 1171,111 1084,57C997,2 882,-25 741,-25C604,-25 491,-1 404,46C317,93 254,162 217,252C180,341 161,464 161,619l0,847l194,0l0,-846C355,493 367,399 391,339C414,278 455,232 513,199C570,166 641,150 724,150C867,150 968,182 1029,247C1090,312 1120,436 1120,620M854,1556l-145,0l-231,280l241,0z"/>
   <glyph unicode="&#x131;" horiz-adv-x="569" d="M198,0l0,1062l180,0l0,-1062z"/>
   <glyph unicode="&#x2C6;" horiz-adv-x="682" d="M344,1364l-113,-170l-206,0l216,280l192,0l225,-280l-204,0z"/>
   <glyph unicode="&#x2DC;" horiz-adv-x="682" d="M7,1219C6,1288 25,1344 64,1385C102,1426 151,1447 210,1447C251,1447 308,1429 379,1393C418,1373 450,1363 473,1363C494,1363 511,1369 522,1381C533,1392 541,1415 546,1450l130,0C674,1374 655,1317 619,1279C582,1241 536,1222 480,1222C438,1222 383,1241 314,1278C269,1302 237,1314 216,1314C193,1314 175,1306 161,1290C146,1274 139,1250 140,1219z"/>
   <glyph unicode="&#x2C9;" horiz-adv-x="682" d="M29,1227l0,148l624,0l0,-148z"/>
   <glyph unicode="&#x2D8;" horiz-adv-x="682" d="M514,1464l123,0C627,1381 597,1317 546,1272C495,1227 427,1205 342,1205C257,1205 189,1227 138,1272C87,1316 56,1380 46,1464l123,0C178,1419 197,1385 225,1363C252,1340 289,1329 336,1329C390,1329 431,1340 459,1362C486,1383 505,1417 514,1464z"/>
   <glyph unicode="&#x2D9;" horiz-adv-x="682" d="M229,1194l0,224l223,0l0,-224z"/>
   <glyph unicode="&#x2DA;" horiz-adv-x="682" d="M162,1338C162,1387 180,1429 216,1464C251,1499 293,1517 342,1517C391,1517 434,1499 469,1464C504,1428 522,1385 522,1334C522,1283 504,1239 469,1204C434,1169 392,1151 343,1151C293,1151 250,1169 215,1205C180,1240 162,1285 162,1338M238,1337C238,1306 249,1279 270,1258C291,1237 315,1226 344,1226C373,1226 398,1237 419,1258C440,1279 450,1305 450,1335C450,1365 440,1391 419,1412C398,1433 373,1444 344,1444C315,1444 291,1434 270,1413C249,1392 238,1366 238,1337z"/>
   <glyph unicode="&#xB8;" horiz-adv-x="682" d="M216,-154l52,177l134,0l-33,-107C426,-91 468,-108 497,-136C526,-165 540,-196 540,-231C540,-281 516,-325 468,-363C420,-402 348,-421 251,-421C196,-421 148,-417 107,-409l11,117C161,-295 192,-296 212,-296C275,-296 319,-287 344,-270C363,-257 373,-240 373,-221C373,-209 369,-198 362,-189C354,-180 340,-172 319,-165C298,-158 264,-155 216,-154z"/>
   <glyph unicode="&#x2DD;" horiz-adv-x="682" d="M58,1194l121,280l234,0l-211,-280M405,1194l127,280l231,0l-207,-280z"/>
   <glyph unicode="&#x2DB;" horiz-adv-x="682" d="M224,24l124,0C322,-35 309,-90 309,-140C309,-185 323,-222 350,-250C377,-278 412,-292 453,-292C504,-292 560,-277 621,-246l0,-119C586,-383 549,-398 508,-409C467,-420 432,-426 402,-426C336,-426 283,-406 243,-366C203,-326 183,-272 183,-205C183,-148 197,-71 224,24z"/>
   <glyph unicode="&#x2C7;" horiz-adv-x="682" d="M359,1304l110,170l204,0l-225,-280l-192,0l-216,280l206,0z"/>
   <glyph unicode="&#x141;" horiz-adv-x="1139" d="M145,565l-145,-123l0,167l145,124l0,733l194,0l0,-568l332,281l0,-167l-332,-281l0,-558l728,0l0,-173l-922,0z"/>
   <glyph unicode="&#x142;" horiz-adv-x="455" d="M133,574l-130,-110l0,158l130,110l0,734l179,0l0,-582l135,115l0,-157l-135,-115l0,-727l-179,0z"/>
   <glyph unicode="&#x160;" horiz-adv-x="1366" d="M92,471l183,16C284,414 304,354 336,307C367,260 416,222 483,193C550,164 625,149 708,149C782,149 847,160 904,182C961,204 1003,234 1031,273C1058,311 1072,353 1072,398C1072,444 1059,484 1032,519C1005,553 961,582 900,605C861,620 774,644 639,677C504,709 410,739 356,768C286,805 234,850 200,905C165,959 148,1020 148,1087C148,1161 169,1230 211,1295C253,1359 314,1408 395,1441C476,1474 565,1491 664,1491C773,1491 869,1474 952,1439C1035,1404 1098,1352 1143,1284C1188,1216 1212,1139 1215,1053l-186,-14C1019,1132 985,1202 928,1249C870,1296 785,1320 672,1320C555,1320 469,1299 416,1256C362,1213 335,1161 335,1100C335,1047 354,1004 392,970C429,936 527,901 685,866C842,830 950,799 1009,772C1094,733 1157,683 1198,623C1239,562 1259,493 1259,414C1259,336 1237,263 1192,194C1147,125 1083,71 1000,33C916,-6 822,-25 717,-25C584,-25 473,-6 384,33C294,72 224,130 173,208C122,285 95,373 92,471M655,1660l110,170l204,0l-225,-280l-192,0l-216,280l206,0z"/>
   <glyph unicode="&#x161;" horiz-adv-x="1024" d="M63,317l178,28C251,274 279,219 325,181C370,143 434,124 516,124C599,124 660,141 700,175C740,208 760,248 760,293C760,334 742,366 707,389C682,405 621,425 523,450C391,483 300,512 249,537C198,561 159,595 133,638C106,681 93,728 93,780C93,827 104,871 126,912C147,952 177,985 214,1012C242,1033 280,1050 329,1065C377,1079 429,1086 484,1086C567,1086 641,1074 704,1050C767,1026 813,994 843,953C873,912 894,857 905,788l-176,-24C721,819 698,861 660,892C621,923 567,938 497,938C414,938 355,924 320,897C285,870 267,838 267,801C267,778 274,757 289,738C304,719 327,703 358,690C376,683 429,668 517,644C644,610 733,582 784,561C834,539 873,507 902,466C931,425 945,373 945,312C945,252 928,196 893,143C858,90 807,49 741,20C675,-9 600,-24 517,-24C379,-24 274,5 202,62C129,119 83,204 63,317M507,1304l110,170l204,0l-225,-280l-192,0l-216,280l206,0z"/>
   <glyph unicode="&#x17D;" horiz-adv-x="1251" d="M41,0l0,180l751,939C845,1186 896,1244 944,1293l-818,0l0,173l1050,0l0,-173l-823,-1017l-89,-103l936,0l0,-173M635,1660l110,170l204,0l-225,-280l-192,0l-216,280l206,0z"/>
   <glyph unicode="&#x17E;" horiz-adv-x="1024" d="M40,0l0,146l676,776C639,918 572,916 513,916l-433,0l0,146l868,0l0,-119l-575,-674l-111,-123C343,152 418,155 489,155l491,0l0,-155M543,1304l110,170l204,0l-225,-280l-192,0l-216,280l206,0z"/>
   <glyph unicode="&#xA6;" horiz-adv-x="532" d="M345,1491l0,-790l-157,0l0,790M345,360l0,-791l-157,0l0,791z"/>
   <glyph unicode="&#xD0;" horiz-adv-x="1479" d="M158,0l0,667l-161,0l0,132l161,0l0,667l506,0C777,1466 864,1459 924,1445C1008,1426 1080,1391 1139,1340C1216,1275 1274,1191 1313,1090C1351,988 1370,872 1370,741C1370,592 1346,463 1299,356C1252,248 1195,170 1129,121C1063,72 987,38 901,17C854,6 782,0 687,0M352,173l313,0C762,173 838,182 893,200C948,218 991,243 1023,275C1069,321 1105,383 1131,460C1157,537 1170,632 1170,743C1170,858 1157,949 1132,1018C1106,1087 1072,1142 1031,1183C990,1224 944,1253 893,1269C842,1285 765,1293 660,1293l-308,0l0,-494l404,0l0,-132l-404,0z"/>
   <glyph unicode="&#xF0;" horiz-adv-x="1139" d="M308,1466l217,0C573,1430 615,1396 650,1364l214,102l45,-102l-172,-83C950,1036 1057,782 1057,521C1057,352 1011,219 918,122C825,24 707,-25 564,-25C394,-25 261,40 166,169C104,254 73,370 73,517C73,691 116,825 202,920C288,1015 396,1062 525,1062C564,1062 598,1058 627,1050C656,1042 693,1026 737,1003C713,1052 692,1090 674,1117C656,1144 630,1177 595,1216l-275,-127l-44,103l239,109C450,1361 381,1416 308,1466M870,529C870,657 840,755 780,823C719,890 645,924 557,924C470,924 399,890 342,823C285,755 257,651 257,512C257,383 286,285 345,220C403,155 476,122 563,122C648,122 721,157 781,226C840,295 870,396 870,529z"/>
   <glyph unicode="&#xDD;" horiz-adv-x="1366" d="M571,0l0,621l-565,845l236,0l289,-442C584,941 634,859 680,776C724,853 777,939 840,1035l284,431l226,0l-585,-845l0,-621M555,1556l133,280l236,0l-220,-280z"/>
   <glyph unicode="&#xFD;" horiz-adv-x="1024" d="M127,-409l-20,169C146,-251 181,-256 210,-256C250,-256 282,-249 306,-236C330,-223 350,-204 365,-180C376,-162 395,-117 420,-46C423,-36 429,-21 436,-2l-403,1064l194,0l221,-615C477,369 502,287 525,201C546,284 570,364 599,443l227,619l180,0l-404,-1080C559,-135 525,-215 501,-259C469,-318 432,-362 391,-389C350,-417 300,-431 243,-431C208,-431 170,-424 127,-409M420,1194l133,280l236,0l-220,-280z"/>
   <glyph unicode="&#xDE;" horiz-adv-x="1366" d="M158,0l0,1466l194,0l0,-298l359,0C808,1168 883,1163 935,1154C1007,1141 1067,1118 1116,1085C1165,1051 1204,1004 1233,943C1262,882 1277,816 1277,743C1277,619 1237,514 1158,428C1079,341 935,298 728,298l-376,0l0,-298M352,471l379,0C856,471 945,494 998,541C1051,588 1077,653 1077,737C1077,798 1062,850 1031,894C1000,938 960,967 909,981C876,990 816,995 727,995l-375,0z"/>
   <glyph unicode="&#xFE;" horiz-adv-x="1139" d="M135,-407l0,1873l180,0l0,-516C364,1001 406,1035 443,1052C491,1075 546,1086 607,1086C698,1086 778,1063 847,1016C916,969 969,904 1004,819C1039,734 1057,640 1057,539C1057,430 1038,332 999,245C960,158 903,92 829,46C754,-1 676,-24 595,-24C540,-24 488,-13 441,9C405,26 363,60 315,110l0,-517M298,525C298,388 326,287 381,222C436,157 503,124 582,124C662,124 731,158 788,226C845,293 873,398 873,540C873,675 845,777 790,844C734,911 667,945 590,945C513,945 446,909 387,838C328,766 298,662 298,525z"/>
   <glyph unicode="&#x2212;" horiz-adv-x="1196" d="M1082,639l-968,0l0,168l968,0z"/>
   <glyph unicode="&#xD7;" horiz-adv-x="1196" d="M161,409l315,315l-314,314l122,122l314,-314l313,313l120,-121l-312,-313l314,-314l-122,-122l-314,314l-315,-315z"/>
   <glyph unicode="&#xB9;" horiz-adv-x="682" d="M331,733l0,554C263,1233 188,1195 107,1174l0,123C148,1310 194,1335 245,1370C296,1405 337,1443 368,1484l108,0l0,-751z"/>
   <glyph unicode="&#xB2;" horiz-adv-x="682" d="M25,733C29,771 45,809 72,847C114,904 183,968 279,1038C375,1107 432,1152 450,1172C475,1199 487,1227 487,1256C487,1288 475,1314 452,1335C429,1356 394,1366 349,1366C305,1366 272,1358 251,1343C229,1327 211,1297 197,1252l-151,16C65,1342 99,1397 147,1432C194,1467 263,1484 352,1484C453,1484 527,1464 574,1425C621,1386 644,1338 644,1281C644,1225 624,1172 585,1122C555,1085 487,1028 380,951C325,910 285,878 262,854l386,0l0,-121z"/>
   <glyph unicode="&#xB3;" horiz-adv-x="682" d="M33,929l146,15C192,904 210,877 231,862C260,842 294,832 333,832C380,832 418,845 447,871C476,897 490,928 490,965C490,998 478,1025 454,1045C430,1065 389,1075 331,1075C323,1075 312,1074 298,1073C289,1072 281,1072 276,1072l22,110C352,1181 392,1191 417,1211C442,1231 454,1255 454,1284C454,1309 444,1330 424,1347C404,1364 374,1373 335,1373C298,1373 269,1366 248,1351C227,1336 208,1310 193,1271l-143,23C77,1365 112,1414 154,1442C195,1470 256,1484 336,1484C432,1484 502,1466 546,1431C589,1395 611,1350 611,1297C611,1260 599,1228 576,1199C552,1170 518,1150 473,1137C532,1122 576,1098 604,1065C632,1031 646,991 646,946C646,884 620,830 567,784C514,738 439,715 342,715C249,715 177,734 128,771C79,808 47,860 33,929z"/>
   <glyph unicode="&#xBD;" horiz-adv-x="1708" d="M228,-57l1101,1548l157,0l-1101,-1548M331,733l0,554C263,1233 188,1195 107,1174l0,123C148,1310 194,1335 245,1370C296,1405 337,1443 368,1484l108,0l0,-751M1049,-31C1053,6 1069,44 1097,82C1138,140 1207,204 1303,273C1399,342 1456,387 1474,408C1499,435 1511,463 1511,492C1511,524 1500,550 1477,571C1454,591 1419,601 1373,601C1329,601 1296,593 1275,578C1253,562 1235,532 1221,488l-151,15C1089,578 1123,633 1171,668C1219,703 1287,720 1376,720C1477,720 1551,700 1598,661C1645,622 1668,574 1668,517C1668,461 1648,408 1609,358C1579,321 1511,263 1405,186C1349,145 1309,113 1286,90l386,0l0,-121z"/>
   <glyph unicode="&#xBC;" horiz-adv-x="1708" d="M252,-57l1102,1548l156,0l-1101,-1548M331,733l0,554C263,1233 188,1195 107,1174l0,123C148,1310 194,1335 245,1370C296,1405 337,1443 368,1484l108,0l0,-751M1430,-31l0,154l-383,0l0,123l405,474l122,0l0,-489l104,0l0,-108l-104,0l0,-154M1430,231l0,263l-230,-263z"/>
   <glyph unicode="&#xBE;" horiz-adv-x="1708" d="M252,-57l1101,1548l157,0l-1101,-1548M33,929l146,15C192,904 210,877 231,862C260,842 294,832 333,832C380,832 418,845 447,871C476,897 490,928 490,965C490,998 478,1025 454,1045C430,1065 390,1075 334,1075C301,1073 281,1072 276,1072l22,110C352,1181 392,1191 417,1211C442,1231 454,1255 454,1284C454,1309 444,1330 424,1347C404,1364 374,1373 335,1373C298,1373 269,1366 248,1351C227,1336 208,1310 193,1271l-143,23C77,1365 112,1414 154,1442C195,1470 256,1484 336,1484C432,1484 502,1466 546,1431C589,1395 611,1350 611,1297C611,1260 599,1228 576,1199C552,1170 518,1150 473,1137C532,1122 576,1098 604,1065C632,1031 646,991 646,946C646,884 620,830 567,784C514,738 439,715 342,715C249,715 177,734 128,771C79,808 47,860 33,929M1429,-31l0,154l-382,0l0,123l404,474l123,0l0,-489l104,0l0,-108l-104,0l0,-154M1429,231l0,263l-229,-263z"/>
   <glyph unicode="&#x20A3;" horiz-adv-x="1139" d="M168,246l-168,0l0,149l168,0l0,1071l869,0l0,-173l-675,0l0,-454l568,0l0,-173l-568,0l0,-271l315,0l0,-149l-315,0l0,-246l-194,0z"/>
   <glyph unicode="&#x11E;" horiz-adv-x="1593" d="M844,575l0,172l621,1l0,-544C1370,128 1271,71 1170,33C1069,-6 965,-25 858,-25C714,-25 583,6 466,68C348,129 259,218 199,335C139,452 109,582 109,726C109,869 139,1002 199,1126C258,1249 344,1341 456,1401C568,1461 697,1491 843,1491C949,1491 1045,1474 1131,1440C1216,1405 1283,1357 1332,1296C1381,1235 1418,1155 1443,1056l-175,-48C1246,1083 1219,1141 1186,1184C1153,1227 1107,1261 1046,1287C985,1312 918,1325 844,1325C755,1325 679,1312 614,1285C549,1258 497,1222 458,1178C418,1134 387,1086 365,1033C328,942 309,844 309,738C309,607 332,498 377,410C422,322 487,257 573,214C659,171 750,150 847,150C931,150 1013,166 1093,199C1173,231 1234,265 1275,302l0,273M1040,1815l123,0C1153,1732 1123,1668 1072,1623C1021,1578 953,1556 868,1556C783,1556 715,1578 664,1623C613,1667 582,1731 572,1815l123,0C704,1770 723,1736 751,1714C778,1691 815,1680 862,1680C916,1680 957,1691 985,1713C1012,1734 1031,1768 1040,1815z"/>
   <glyph unicode="&#x11F;" horiz-adv-x="1139" d="M102,-88l175,-26C284,-168 305,-207 338,-232C383,-265 444,-282 521,-282C604,-282 669,-265 714,-232C759,-199 790,-152 806,-92C815,-55 820,22 819,139C740,46 642,0 525,0C379,0 266,53 186,158C106,263 66,390 66,537C66,638 84,732 121,818C158,903 211,969 281,1016C350,1063 432,1086 526,1086C651,1086 755,1035 836,934l0,128l166,0l0,-918C1002,-21 985,-138 952,-207C918,-276 865,-331 792,-371C719,-411 629,-431 522,-431C395,-431 293,-402 215,-345C137,-288 99,-203 102,-88M251,550C251,411 279,309 334,245C389,181 459,149 542,149C625,149 694,181 750,245C806,308 834,408 834,544C834,674 805,772 748,838C690,904 620,937 539,937C459,937 391,905 335,840C279,775 251,678 251,550M742,1464l123,0C855,1381 825,1317 774,1272C723,1227 655,1205 570,1205C485,1205 417,1227 366,1272C315,1316 284,1380 274,1464l123,0C406,1419 425,1385 453,1363C480,1340 517,1329 564,1329C618,1329 659,1340 687,1362C714,1383 733,1417 742,1464z"/>
   <glyph unicode="&#x130;" horiz-adv-x="569" d="M191,0l0,1466l194,0l0,-1466M177,1556l0,224l223,0l0,-224z"/>
   <glyph unicode="&#x15E;" horiz-adv-x="1366" d="M92,471l183,16C284,414 304,354 336,307C367,260 416,222 483,193C550,164 625,149 708,149C782,149 847,160 904,182C961,204 1003,234 1031,273C1058,311 1072,353 1072,398C1072,444 1059,484 1032,519C1005,553 961,582 900,605C861,620 774,644 639,677C504,709 410,739 356,768C286,805 234,850 200,905C165,959 148,1020 148,1087C148,1161 169,1230 211,1295C253,1359 314,1408 395,1441C476,1474 565,1491 664,1491C773,1491 869,1474 952,1439C1035,1404 1098,1352 1143,1284C1188,1216 1212,1139 1215,1053l-186,-14C1019,1132 985,1202 928,1249C870,1296 785,1320 672,1320C555,1320 469,1299 416,1256C362,1213 335,1161 335,1100C335,1047 354,1004 392,970C429,936 527,901 685,866C842,830 950,799 1009,772C1094,733 1157,683 1198,623C1239,562 1259,493 1259,414C1259,336 1237,263 1192,194C1147,125 1083,71 1000,33C916,-6 822,-25 717,-25C584,-25 473,-6 384,33C294,72 224,130 173,208C122,285 95,373 92,471M555,-144l52,177l134,0l-33,-107C765,-81 807,-98 836,-126C865,-155 879,-186 879,-221C879,-271 855,-315 807,-353C759,-392 687,-411 590,-411C535,-411 487,-407 446,-399l11,117C500,-285 531,-286 551,-286C614,-286 658,-277 683,-260C702,-247 712,-230 712,-211C712,-199 708,-188 701,-179C693,-170 679,-162 658,-155C637,-148 603,-145 555,-144z"/>
   <glyph unicode="&#x15F;" horiz-adv-x="1024" d="M63,317l178,28C251,274 279,219 325,181C370,143 434,124 516,124C599,124 660,141 700,175C740,208 760,248 760,293C760,334 742,366 707,389C682,405 621,425 523,450C391,483 300,512 249,537C198,561 159,595 133,638C106,681 93,728 93,780C93,827 104,871 126,912C147,952 177,985 214,1012C242,1033 280,1050 329,1065C377,1079 429,1086 484,1086C567,1086 641,1074 704,1050C767,1026 813,994 843,953C873,912 894,857 905,788l-176,-24C721,819 698,861 660,892C621,923 567,938 497,938C414,938 355,924 320,897C285,870 267,838 267,801C267,778 274,757 289,738C304,719 327,703 358,690C376,683 429,668 517,644C644,610 733,582 784,561C834,539 873,507 902,466C931,425 945,373 945,312C945,252 928,196 893,143C858,90 807,49 741,20C675,-9 600,-24 517,-24C379,-24 274,5 202,62C129,119 83,204 63,317M375,-134l52,177l134,0l-33,-107C585,-71 627,-88 656,-116C685,-145 699,-176 699,-211C699,-261 675,-305 627,-343C579,-382 507,-401 410,-401C355,-401 307,-397 266,-389l11,117C320,-275 351,-276 371,-276C434,-276 478,-267 503,-250C522,-237 532,-220 532,-201C532,-189 528,-178 521,-169C513,-160 499,-152 478,-145C457,-138 423,-135 375,-134z"/>
   <glyph unicode="&#x106;" horiz-adv-x="1479" d="M1204,514l194,-49C1357,306 1284,184 1179,101C1073,17 944,-25 791,-25C633,-25 505,7 406,72C307,136 231,229 180,351C128,473 102,604 102,744C102,897 131,1030 190,1144C248,1257 331,1344 439,1403C546,1462 665,1491 794,1491C941,1491 1064,1454 1164,1379C1264,1304 1334,1199 1373,1064l-191,-45C1148,1126 1099,1203 1034,1252C969,1301 888,1325 790,1325C677,1325 583,1298 508,1244C432,1190 379,1118 348,1027C317,936 302,842 302,745C302,620 320,512 357,419C393,326 449,256 526,210C603,164 686,141 775,141C884,141 976,172 1051,235C1126,298 1177,391 1204,514M663,1556l133,280l236,0l-220,-280z"/>
   <glyph unicode="&#x107;" horiz-adv-x="1024" d="M828,389l177,-23C986,244 936,149 857,80C777,11 679,-24 563,-24C418,-24 301,24 213,119C124,214 80,350 80,527C80,642 99,742 137,828C175,914 233,979 311,1022C388,1065 473,1086 564,1086C679,1086 774,1057 847,999C920,940 967,857 988,750l-175,-27C796,794 767,848 725,884C682,920 631,938 571,938C480,938 407,906 350,841C293,776 265,673 265,532C265,389 292,286 347,221C402,156 473,124 561,124C632,124 691,146 738,189C785,232 815,299 828,389M424,1194l133,280l236,0l-220,-280z"/>
   <glyph unicode="&#x10C;" horiz-adv-x="1479" d="M1204,514l194,-49C1357,306 1284,184 1179,101C1073,17 944,-25 791,-25C633,-25 505,7 406,72C307,136 231,229 180,351C128,473 102,604 102,744C102,897 131,1030 190,1144C248,1257 331,1344 439,1403C546,1462 665,1491 794,1491C941,1491 1064,1454 1164,1379C1264,1304 1334,1199 1373,1064l-191,-45C1148,1126 1099,1203 1034,1252C969,1301 888,1325 790,1325C677,1325 583,1298 508,1244C432,1190 379,1118 348,1027C317,936 302,842 302,745C302,620 320,512 357,419C393,326 449,256 526,210C603,164 686,141 775,141C884,141 976,172 1051,235C1126,298 1177,391 1204,514M791,1660l110,170l204,0l-225,-280l-192,0l-216,280l206,0z"/>
   <glyph unicode="&#x10D;" horiz-adv-x="1024" d="M828,389l177,-23C986,244 936,149 857,80C777,11 679,-24 563,-24C418,-24 301,24 213,119C124,214 80,350 80,527C80,642 99,742 137,828C175,914 233,979 311,1022C388,1065 473,1086 564,1086C679,1086 774,1057 847,999C920,940 967,857 988,750l-175,-27C796,794 767,848 725,884C682,920 631,938 571,938C480,938 407,906 350,841C293,776 265,673 265,532C265,389 292,286 347,221C402,156 473,124 561,124C632,124 691,146 738,189C785,232 815,299 828,389M561,1304l110,170l204,0l-225,-280l-192,0l-216,280l206,0z"/>
   <glyph unicode="&#x111;" horiz-adv-x="1139" d="M812,1219l-346,0l0,132l346,0l0,115l179,0l0,-115l145,0l0,-132l-145,0l0,-1219l-167,0l0,134C757,29 658,-24 527,-24C442,-24 365,-1 294,46C223,93 168,158 129,242C90,325 70,421 70,530C70,636 88,732 123,819C158,905 211,971 282,1017C353,1063 432,1086 519,1086C583,1086 640,1073 690,1046C740,1019 781,983 812,940M255,530C255,394 284,292 341,225C398,158 466,124 544,124C623,124 690,156 745,221C800,285 827,383 827,515C827,660 799,767 743,835C687,903 618,937 536,937C456,937 389,904 336,839C282,774 255,671 255,530z"/>
   <glyph unicode="&#xAF;" horiz-adv-x="1131" d="M-31,1566l0,129l1193,0l0,-129z"/>
   <glyph unicode="&#x102;" horiz-adv-x="1366" d="M-3,0l563,1466l209,0l600,-1466l-221,0l-171,444l-613,0l-161,-444M420,602l497,0l-153,406C717,1131 683,1233 660,1312C641,1218 615,1125 581,1032M852,1815l123,0C965,1732 935,1668 884,1623C833,1578 765,1556 680,1556C595,1556 527,1578 476,1623C425,1667 394,1731 384,1815l123,0C516,1770 535,1736 563,1714C590,1691 627,1680 674,1680C728,1680 769,1691 797,1713C824,1734 843,1768 852,1815z"/>
   <glyph unicode="&#x103;" horiz-adv-x="1139" d="M828,131C761,74 697,34 636,11C574,-12 508,-24 437,-24C320,-24 231,5 168,62C105,119 74,191 74,280C74,332 86,380 110,423C133,466 164,500 203,526C241,552 284,572 332,585C367,594 421,603 492,612C637,629 744,650 813,674C814,699 814,714 814,721C814,794 797,846 763,876C717,917 649,937 558,937C473,937 411,922 371,893C330,863 300,810 281,735l-176,24C121,834 147,895 184,942C221,988 274,1024 343,1049C412,1074 493,1086 584,1086C675,1086 748,1075 805,1054C862,1033 903,1006 930,974C957,941 975,900 986,851C992,820 995,765 995,685l0,-240C995,278 999,172 1007,128C1014,83 1029,41 1052,0l-188,0C845,37 833,81 828,131M813,533C748,506 650,484 519,465C445,454 393,442 362,429C331,416 308,396 291,371C274,345 266,316 266,285C266,237 284,197 321,165C357,133 410,117 480,117C549,117 611,132 665,163C719,193 759,234 784,287C803,328 813,388 813,467M759,1464l123,0C872,1381 842,1317 791,1272C740,1227 672,1205 587,1205C502,1205 434,1227 383,1272C332,1316 301,1380 291,1464l123,0C423,1419 442,1385 470,1363C497,1340 534,1329 581,1329C635,1329 676,1340 704,1362C731,1383 750,1417 759,1464z"/>
   <glyph unicode="&#x104;" horiz-adv-x="1366" d="M-3,0l563,1466l209,0l600,-1466l-221,0l-171,444l-613,0l-161,-444M420,602l497,0l-153,406C717,1131 683,1233 660,1312C641,1218 615,1125 581,1032M1151,34l124,0C1249,-25 1236,-80 1236,-130C1236,-175 1250,-212 1277,-240C1304,-268 1339,-282 1380,-282C1431,-282 1487,-267 1548,-236l0,-119C1513,-373 1476,-388 1435,-399C1394,-410 1359,-416 1329,-416C1263,-416 1210,-396 1170,-356C1130,-316 1110,-262 1110,-195C1110,-138 1124,-61 1151,34z"/>
   <glyph unicode="&#x105;" horiz-adv-x="1139" d="M828,131C761,74 697,34 636,11C574,-12 508,-24 437,-24C320,-24 231,5 168,62C105,119 74,191 74,280C74,332 86,380 110,423C133,466 164,500 203,526C241,552 284,572 332,585C367,594 421,603 492,612C637,629 744,650 813,674C814,699 814,714 814,721C814,794 797,846 763,876C717,917 649,937 558,937C473,937 411,922 371,893C330,863 300,810 281,735l-176,24C121,834 147,895 184,942C221,988 274,1024 343,1049C412,1074 493,1086 584,1086C675,1086 748,1075 805,1054C862,1033 903,1006 930,974C957,941 975,900 986,851C992,820 995,765 995,685l0,-240C995,278 999,172 1007,128C1014,83 1029,41 1052,0l-188,0C845,37 833,81 828,131M813,533C748,506 650,484 519,465C445,454 393,442 362,429C331,416 308,396 291,371C274,345 266,316 266,285C266,237 284,197 321,165C357,133 410,117 480,117C549,117 611,132 665,163C719,193 759,234 784,287C803,328 813,388 813,467M871,49l124,0C969,-10 956,-65 956,-115C956,-160 970,-197 997,-225C1024,-253 1059,-267 1100,-267C1151,-267 1207,-252 1268,-221l0,-119C1233,-358 1196,-373 1155,-384C1114,-395 1079,-401 1049,-401C983,-401 930,-381 890,-341C850,-301 830,-247 830,-180C830,-123 844,-46 871,49z"/>
   <glyph unicode="&#x10E;" horiz-adv-x="1479" d="M158,0l0,1466l505,0C777,1466 864,1459 924,1445C1008,1426 1080,1391 1139,1340C1216,1275 1274,1191 1313,1090C1351,988 1370,872 1370,741C1370,630 1357,531 1331,445C1305,359 1272,288 1231,232C1190,175 1146,131 1098,99C1049,66 991,42 923,25C854,8 776,0 687,0M352,173l313,0C762,173 838,182 893,200C948,218 991,243 1024,276C1070,322 1106,384 1132,462C1157,539 1170,633 1170,744C1170,897 1145,1015 1095,1098C1044,1180 983,1235 911,1263C859,1283 775,1293 660,1293l-308,0M600,1660l110,170l204,0l-225,-280l-192,0l-216,280l206,0z"/>
   <glyph unicode="&#x10F;" horiz-adv-x="1259" d="M1078,1281l0,185l184,0l0,-185C1262,1214 1250,1159 1226,1118C1202,1076 1164,1044 1112,1021l-45,68C1101,1104 1126,1127 1143,1156C1159,1185 1168,1226 1169,1281M825,0l0,134C758,29 659,-24 528,-24C443,-24 366,-1 295,46C224,93 169,158 130,242C91,325 71,421 71,530C71,636 89,732 124,819C159,905 212,971 283,1017C354,1063 433,1086 520,1086C584,1086 641,1073 691,1046C741,1019 782,983 813,940l0,526l179,0l0,-1466M256,530C256,394 285,292 342,225C399,158 467,124 545,124C624,124 691,156 746,221C801,285 828,383 828,515C828,660 800,767 744,835C688,903 619,937 537,937C457,937 390,904 337,839C283,774 256,671 256,530z"/>
   <glyph unicode="&#x110;" horiz-adv-x="1479" d="M158,0l0,667l-161,0l0,132l161,0l0,667l506,0C777,1466 864,1459 924,1445C1008,1426 1080,1391 1139,1340C1216,1275 1274,1191 1313,1090C1351,988 1370,872 1370,741C1370,592 1346,463 1299,356C1252,248 1195,170 1129,121C1063,72 987,38 901,17C854,6 782,0 687,0M352,173l313,0C762,173 838,182 893,200C948,218 991,243 1023,275C1069,321 1105,383 1131,460C1157,537 1170,632 1170,743C1170,858 1157,949 1132,1018C1106,1087 1072,1142 1031,1183C990,1224 944,1253 893,1269C842,1285 765,1293 660,1293l-308,0l0,-494l404,0l0,-132l-404,0z"/>
   <glyph unicode="&#x118;" horiz-adv-x="1366" d="M162,0l0,1466l1060,0l0,-173l-866,0l0,-449l811,0l0,-172l-811,0l0,-499l900,0l0,-173M856,24l124,0C954,-35 941,-90 941,-140C941,-185 955,-222 982,-250C1009,-278 1044,-292 1085,-292C1136,-292 1192,-277 1253,-246l0,-119C1218,-383 1181,-398 1140,-409C1099,-420 1064,-426 1034,-426C968,-426 915,-406 875,-366C835,-326 815,-272 815,-205C815,-148 829,-71 856,24z"/>
   <glyph unicode="&#x119;" horiz-adv-x="1139" d="M862,342l186,-23C1019,210 964,126 885,66C806,6 704,-24 581,-24C426,-24 303,24 212,120C121,215 75,349 75,522C75,701 121,839 213,938C305,1037 424,1086 571,1086C713,1086 829,1038 919,941C1009,844 1054,708 1054,533C1054,522 1054,506 1053,485l-792,0C268,368 301,279 360,217C419,155 493,124 582,124C648,124 704,141 751,176C798,211 835,266 862,342M271,633l593,0C856,722 833,789 796,834C739,903 664,938 573,938C490,938 421,910 365,855C308,800 277,726 271,633M541,24l124,0C639,-35 626,-90 626,-140C626,-185 640,-222 667,-250C694,-278 729,-292 770,-292C821,-292 877,-277 938,-246l0,-119C903,-383 866,-398 825,-409C784,-420 749,-426 719,-426C653,-426 600,-406 560,-366C520,-326 500,-272 500,-205C500,-148 514,-71 541,24z"/>
   <glyph unicode="&#x11A;" horiz-adv-x="1366" d="M162,0l0,1466l1060,0l0,-173l-866,0l0,-449l811,0l0,-172l-811,0l0,-499l900,0l0,-173M666,1660l110,170l204,0l-225,-280l-192,0l-216,280l206,0z"/>
   <glyph unicode="&#x11B;" horiz-adv-x="1139" d="M862,342l186,-23C1019,210 964,126 885,66C806,6 704,-24 581,-24C426,-24 303,24 212,120C121,215 75,349 75,522C75,701 121,839 213,938C305,1037 424,1086 571,1086C713,1086 829,1038 919,941C1009,844 1054,708 1054,533C1054,522 1054,506 1053,485l-792,0C268,368 301,279 360,217C419,155 493,124 582,124C648,124 704,141 751,176C798,211 835,266 862,342M271,633l593,0C856,722 833,789 796,834C739,903 664,938 573,938C490,938 421,910 365,855C308,800 277,726 271,633M583,1304l110,170l204,0l-225,-280l-192,0l-216,280l206,0z"/>
   <glyph unicode="&#x139;" horiz-adv-x="1139" d="M150,0l0,1466l194,0l0,-1293l722,0l0,-173M304,1556l133,280l236,0l-220,-280z"/>
   <glyph unicode="&#x13A;" horiz-adv-x="455" d="M131,0l0,1466l180,0l0,-1466M66,1541l133,280l236,0l-220,-280z"/>
   <glyph unicode="&#x13D;" horiz-adv-x="1139" d="M712,1261l0,205l205,0l0,-205C917,1186 904,1125 877,1079C850,1032 808,996 750,971l-50,77C738,1065 766,1089 785,1122C803,1154 813,1200 814,1261M150,0l0,1466l194,0l0,-1293l722,0l0,-173z"/>
   <glyph unicode="&#x13E;" horiz-adv-x="597" d="M412,1281l0,185l184,0l0,-185C596,1214 584,1159 560,1118C536,1076 498,1044 446,1021l-45,68C435,1104 460,1127 477,1156C493,1185 502,1226 503,1281M136,0l0,1466l180,0l0,-1466z"/>
   <glyph unicode="&#x13F;" horiz-adv-x="1139" d="M150,0l0,1466l194,0l0,-1293l722,0l0,-173M725,637l0,205l205,0l0,-205z"/>
   <glyph unicode="&#x140;" horiz-adv-x="684" d="M131,0l0,1466l180,0l0,-1466M471,637l0,205l205,0l0,-205z"/>
   <glyph unicode="&#x143;" horiz-adv-x="1479" d="M156,0l0,1466l199,0l770,-1151l0,1151l186,0l0,-1466l-199,0l-770,1152l0,-1152M570,1556l133,280l236,0l-220,-280z"/>
   <glyph unicode="&#x144;" horiz-adv-x="1139" d="M135,0l0,1062l162,0l0,-151C375,1028 488,1086 635,1086C699,1086 758,1075 812,1052C865,1029 905,998 932,961C959,924 977,879 988,828C995,795 998,736 998,653l0,-653l-180,0l0,646C818,719 811,774 797,811C783,847 758,876 723,898C687,919 645,930 597,930C520,930 454,906 399,857C343,808 315,716 315,580l0,-580M448,1194l133,280l236,0l-220,-280z"/>
   <glyph unicode="&#x147;" horiz-adv-x="1479" d="M156,0l0,1466l199,0l770,-1151l0,1151l186,0l0,-1466l-199,0l-770,1152l0,-1152M734,1666l110,170l204,0l-225,-280l-192,0l-216,280l206,0z"/>
   <glyph unicode="&#x148;" horiz-adv-x="1139" d="M135,0l0,1062l162,0l0,-151C375,1028 488,1086 635,1086C699,1086 758,1075 812,1052C865,1029 905,998 932,961C959,924 977,879 988,828C995,795 998,736 998,653l0,-653l-180,0l0,646C818,719 811,774 797,811C783,847 758,876 723,898C687,919 645,930 597,930C520,930 454,906 399,857C343,808 315,716 315,580l0,-580M585,1304l110,170l204,0l-225,-280l-192,0l-216,280l206,0z"/>
   <glyph unicode="&#x150;" horiz-adv-x="1593" d="M99,714C99,957 164,1148 295,1286C426,1423 594,1492 801,1492C936,1492 1058,1460 1167,1395C1276,1330 1359,1240 1416,1125C1473,1009 1501,878 1501,731C1501,582 1471,449 1411,332C1351,215 1266,126 1156,66C1046,5 927,-25 800,-25C662,-25 539,8 430,75C321,142 239,233 183,348C127,463 99,585 99,714M299,711C299,534 347,395 442,294C537,192 656,141 799,141C945,141 1065,192 1160,295C1254,398 1301,543 1301,732C1301,851 1281,956 1241,1045C1200,1134 1141,1203 1064,1252C986,1301 899,1325 802,1325C665,1325 547,1278 448,1184C349,1089 299,932 299,711M473,1556l121,280l234,0l-211,-280M820,1556l127,280l231,0l-207,-280z"/>
   <glyph unicode="&#x151;" horiz-adv-x="1139" d="M68,531C68,728 123,873 232,968C323,1047 435,1086 566,1086C712,1086 831,1038 924,943C1017,847 1063,715 1063,546C1063,409 1043,302 1002,224C961,145 901,84 823,41C744,-2 659,-24 566,-24C417,-24 297,24 206,119C114,214 68,352 68,531M253,531C253,395 283,293 342,226C401,158 476,124 566,124C655,124 730,158 789,226C848,294 878,398 878,537C878,668 848,768 789,836C729,903 655,937 566,937C476,937 401,903 342,836C283,769 253,667 253,531M283,1194l121,280l234,0l-211,-280M630,1194l127,280l231,0l-207,-280z"/>
   <glyph unicode="&#x154;" horiz-adv-x="1479" d="M161,0l0,1466l650,0C942,1466 1041,1453 1109,1427C1177,1400 1231,1354 1272,1287C1313,1220 1333,1147 1333,1066C1333,962 1299,874 1232,803C1165,732 1061,686 920,667C971,642 1010,618 1037,594C1094,542 1147,477 1198,399l255,-399l-244,0l-194,305C958,393 912,460 875,507C838,554 806,586 777,605C748,624 718,637 688,644C666,649 630,651 580,651l-225,0l0,-651M355,819l417,0C861,819 930,828 980,847C1030,865 1068,894 1094,935C1120,975 1133,1019 1133,1066C1133,1135 1108,1192 1058,1237C1007,1282 928,1304 819,1304l-464,0M503,1556l133,280l236,0l-220,-280z"/>
   <glyph unicode="&#x155;" horiz-adv-x="682" d="M133,0l0,1062l162,0l0,-161C336,976 375,1026 410,1050C445,1074 483,1086 525,1086C586,1086 647,1067 710,1028l-62,-167C604,887 560,900 516,900C477,900 441,888 410,865C379,841 356,808 343,766C323,702 313,632 313,556l0,-556M242,1194l133,280l236,0l-220,-280z"/>
   <glyph unicode="&#x158;" horiz-adv-x="1479" d="M161,0l0,1466l650,0C942,1466 1041,1453 1109,1427C1177,1400 1231,1354 1272,1287C1313,1220 1333,1147 1333,1066C1333,962 1299,874 1232,803C1165,732 1061,686 920,667C971,642 1010,618 1037,594C1094,542 1147,477 1198,399l255,-399l-244,0l-194,305C958,393 912,460 875,507C838,554 806,586 777,605C748,624 718,637 688,644C666,649 630,651 580,651l-225,0l0,-651M355,819l417,0C861,819 930,828 980,847C1030,865 1068,894 1094,935C1120,975 1133,1019 1133,1066C1133,1135 1108,1192 1058,1237C1007,1282 928,1304 819,1304l-464,0M649,1660l110,170l204,0l-225,-280l-192,0l-216,280l206,0z"/>
   <glyph unicode="&#x159;" horiz-adv-x="682" d="M133,0l0,1062l162,0l0,-161C336,976 375,1026 410,1050C445,1074 483,1086 525,1086C586,1086 647,1067 710,1028l-62,-167C604,887 560,900 516,900C477,900 441,888 410,865C379,841 356,808 343,766C323,702 313,632 313,556l0,-556M379,1304l110,170l204,0l-225,-280l-192,0l-216,280l206,0z"/>
   <glyph unicode="&#x15A;" horiz-adv-x="1366" d="M92,471l183,16C284,414 304,354 336,307C367,260 416,222 483,193C550,164 625,149 708,149C782,149 847,160 904,182C961,204 1003,234 1031,273C1058,311 1072,353 1072,398C1072,444 1059,484 1032,519C1005,553 961,582 900,605C861,620 774,644 639,677C504,709 410,739 356,768C286,805 234,850 200,905C165,959 148,1020 148,1087C148,1161 169,1230 211,1295C253,1359 314,1408 395,1441C476,1474 565,1491 664,1491C773,1491 869,1474 952,1439C1035,1404 1098,1352 1143,1284C1188,1216 1212,1139 1215,1053l-186,-14C1019,1132 985,1202 928,1249C870,1296 785,1320 672,1320C555,1320 469,1299 416,1256C362,1213 335,1161 335,1100C335,1047 354,1004 392,970C429,936 527,901 685,866C842,830 950,799 1009,772C1094,733 1157,683 1198,623C1239,562 1259,493 1259,414C1259,336 1237,263 1192,194C1147,125 1083,71 1000,33C916,-6 822,-25 717,-25C584,-25 473,-6 384,33C294,72 224,130 173,208C122,285 95,373 92,471M492,1556l133,280l236,0l-220,-280z"/>
   <glyph unicode="&#x15B;" horiz-adv-x="1024" d="M63,317l178,28C251,274 279,219 325,181C370,143 434,124 516,124C599,124 660,141 700,175C740,208 760,248 760,293C760,334 742,366 707,389C682,405 621,425 523,450C391,483 300,512 249,537C198,561 159,595 133,638C106,681 93,728 93,780C93,827 104,871 126,912C147,952 177,985 214,1012C242,1033 280,1050 329,1065C377,1079 429,1086 484,1086C567,1086 641,1074 704,1050C767,1026 813,994 843,953C873,912 894,857 905,788l-176,-24C721,819 698,861 660,892C621,923 567,938 497,938C414,938 355,924 320,897C285,870 267,838 267,801C267,778 274,757 289,738C304,719 327,703 358,690C376,683 429,668 517,644C644,610 733,582 784,561C834,539 873,507 902,466C931,425 945,373 945,312C945,252 928,196 893,143C858,90 807,49 741,20C675,-9 600,-24 517,-24C379,-24 274,5 202,62C129,119 83,204 63,317M394,1194l133,280l236,0l-220,-280z"/>
   <glyph unicode="&#x162;" horiz-adv-x="1251" d="M531,0l0,1293l-483,0l0,173l1162,0l0,-173l-485,0l0,-1293M523,-326l0,205l205,0l0,-205C728,-446 672,-530 561,-579l-50,76C551,-485 581,-459 601,-425C614,-403 622,-370 625,-326z"/>
   <glyph unicode="&#x163;" horiz-adv-x="569" d="M528,161l26,-159C503,-9 458,-14 418,-14C353,-14 302,-4 266,17C230,38 205,65 190,99C175,132 168,203 168,311l0,611l-132,0l0,140l132,0l0,263l179,108l0,-371l181,0l0,-140l-181,0l0,-621C347,250 350,217 357,202C363,187 373,176 388,167C402,158 422,154 449,154C469,154 495,156 528,161M275,-305l0,184l185,0l0,-184C460,-352 448,-395 424,-436C399,-477 361,-509 309,-532l-44,69C328,-435 362,-382 367,-305z"/>
   <glyph unicode="&#x164;" horiz-adv-x="1251" d="M531,0l0,1293l-483,0l0,173l1162,0l0,-173l-485,0l0,-1293M630,1660l110,170l204,0l-225,-280l-192,0l-216,280l206,0z"/>
   <glyph unicode="&#x165;" horiz-adv-x="768" d="M581,1281l0,185l184,0l0,-185C765,1214 753,1159 729,1118C705,1076 667,1044 615,1021l-45,68C604,1104 629,1127 646,1156C662,1185 671,1226 672,1281M527,161l26,-159C502,-9 457,-14 417,-14C352,-14 301,-4 265,17C229,38 204,65 189,99C174,132 167,203 167,311l0,611l-132,0l0,140l132,0l0,263l179,108l0,-371l181,0l0,-140l-181,0l0,-621C346,250 349,217 356,202C362,187 372,176 387,167C401,158 421,154 448,154C468,154 494,156 527,161z"/>
   <glyph unicode="&#x16E;" horiz-adv-x="1479" d="M1120,1466l194,0l0,-847C1314,472 1297,355 1264,268C1231,181 1171,111 1084,57C997,2 882,-25 741,-25C604,-25 491,-1 404,46C317,93 254,162 217,252C180,341 161,464 161,619l0,847l194,0l0,-846C355,493 367,399 391,339C414,278 455,232 513,199C570,166 641,150 724,150C867,150 968,182 1029,247C1090,312 1120,436 1120,620M556,1656C556,1705 574,1747 610,1782C645,1817 687,1835 736,1835C785,1835 828,1817 863,1782C898,1746 916,1703 916,1652C916,1601 898,1557 863,1522C828,1487 786,1469 737,1469C687,1469 644,1487 609,1523C574,1558 556,1603 556,1656M632,1655C632,1624 643,1597 664,1576C685,1555 709,1544 738,1544C767,1544 792,1555 813,1576C834,1597 844,1623 844,1653C844,1683 834,1709 813,1730C792,1751 767,1762 738,1762C709,1762 685,1752 664,1731C643,1710 632,1684 632,1655z"/>
   <glyph unicode="&#x16F;" horiz-adv-x="1139" d="M831,0l0,156C748,36 636,-24 494,-24C431,-24 373,-12 319,12C264,36 224,66 198,103C171,139 153,183 142,236C135,271 131,327 131,404l0,658l180,0l0,-589C311,379 315,316 322,283C333,236 357,199 394,172C431,145 476,131 530,131C584,131 635,145 682,173C729,200 763,238 783,286C802,333 812,402 812,493l0,569l180,0l0,-1062M382,1338C382,1387 400,1429 436,1464C471,1499 513,1517 562,1517C611,1517 654,1499 689,1464C724,1428 742,1385 742,1334C742,1283 724,1239 689,1204C654,1169 612,1151 563,1151C513,1151 470,1169 435,1205C400,1240 382,1285 382,1338M458,1337C458,1306 469,1279 490,1258C511,1237 535,1226 564,1226C593,1226 618,1237 639,1258C660,1279 670,1305 670,1335C670,1365 660,1391 639,1412C618,1433 593,1444 564,1444C535,1444 511,1434 490,1413C469,1392 458,1366 458,1337z"/>
   <glyph unicode="&#x170;" horiz-adv-x="1479" d="M1120,1466l194,0l0,-847C1314,472 1297,355 1264,268C1231,181 1171,111 1084,57C997,2 882,-25 741,-25C604,-25 491,-1 404,46C317,93 254,162 217,252C180,341 161,464 161,619l0,847l194,0l0,-846C355,493 367,399 391,339C414,278 455,232 513,199C570,166 641,150 724,150C867,150 968,182 1029,247C1090,312 1120,436 1120,620M465,1556l121,280l234,0l-211,-280M812,1556l127,280l231,0l-207,-280z"/>
   <glyph unicode="&#x171;" horiz-adv-x="1139" d="M831,0l0,156C748,36 636,-24 494,-24C431,-24 373,-12 319,12C264,36 224,66 198,103C171,139 153,183 142,236C135,271 131,327 131,404l0,658l180,0l0,-589C311,379 315,316 322,283C333,236 357,199 394,172C431,145 476,131 530,131C584,131 635,145 682,173C729,200 763,238 783,286C802,333 812,402 812,493l0,569l180,0l0,-1062M238,1194l121,280l234,0l-211,-280M585,1194l127,280l231,0l-207,-280z"/>
   <glyph unicode="&#x179;" horiz-adv-x="1251" d="M41,0l0,180l751,939C845,1186 896,1244 944,1293l-818,0l0,173l1050,0l0,-173l-823,-1017l-89,-103l936,0l0,-173M473,1556l133,280l236,0l-220,-280z"/>
   <glyph unicode="&#x17A;" horiz-adv-x="1024" d="M40,0l0,146l676,776C639,918 572,916 513,916l-433,0l0,146l868,0l0,-119l-575,-674l-111,-123C343,152 418,155 489,155l491,0l0,-155M391,1194l133,280l236,0l-220,-280z"/>
   <glyph unicode="&#x17B;" horiz-adv-x="1251" d="M41,0l0,180l751,939C845,1186 896,1244 944,1293l-818,0l0,173l1050,0l0,-173l-823,-1017l-89,-103l936,0l0,-173M533,1556l0,224l223,0l0,-224z"/>
   <glyph unicode="&#x17C;" horiz-adv-x="1024" d="M40,0l0,146l676,776C639,918 572,916 513,916l-433,0l0,146l868,0l0,-119l-575,-674l-111,-123C343,152 418,155 489,155l491,0l0,-155M398,1194l0,224l223,0l0,-224z"/>
   <glyph unicode="&#x393;" horiz-adv-x="1128" d="M164,1466l916,0l0,-173l-722,0l0,-1293l-194,0z"/>
   <glyph unicode="&#x398;" horiz-adv-x="1593" d="M96,714C96,958 162,1149 293,1286C424,1423 593,1492 798,1492C1004,1492 1172,1422 1303,1283C1433,1143 1498,959 1498,731C1498,504 1432,322 1301,183C1170,44 1002,-25 797,-25C650,-25 521,12 410,86C299,159 219,254 170,370C121,485 96,600 96,714M296,711C296,544 341,407 432,301C523,194 644,141 796,141C945,141 1066,194 1159,299C1252,404 1298,548 1298,732C1298,919 1251,1064 1158,1169C1065,1273 945,1325 799,1325C656,1325 536,1276 440,1178C344,1080 296,924 296,711M507,647l0,172l580,0l0,-172z"/>
   <glyph unicode="&#x3A6;" horiz-adv-x="1634" d="M720,1510l194,0l0,-181C1119,1316 1277,1256 1386,1149C1495,1042 1549,908 1549,749C1549,570 1490,429 1372,326C1254,223 1101,168 914,161l0,-214l-194,0l0,214C527,168 373,225 258,332C143,438 85,574 85,740C85,849 110,947 160,1035C210,1123 281,1192 372,1243C463,1294 579,1322 720,1329M720,1161C583,1157 476,1119 401,1048C325,977 287,874 287,741C287,606 328,504 411,434C494,364 597,328 720,326M914,326C1051,330 1158,368 1235,441C1312,514 1351,615 1351,744C1351,867 1314,967 1240,1045C1166,1122 1057,1161 914,1161z"/>
   <glyph unicode="&#x3B1;" horiz-adv-x="1184" d="M923,1062l184,0C1060,915 1017,738 978,531C1025,274 1068,97 1107,0l-179,0C899,67 878,131 863,194C808,49 692,-24 516,-24C383,-24 275,26 194,126C113,226 72,362 72,533C72,709 113,845 195,942C276,1038 384,1086 519,1086C602,1086 670,1069 723,1036C776,1002 825,951 870,882C875,905 892,965 923,1062M549,937C463,937 395,902 345,833C295,764 270,664 270,533C270,406 294,306 341,233C388,160 454,124 539,124C622,124 691,160 746,232C801,303 829,406 829,541C829,672 803,770 752,837C700,904 632,937 549,937z"/>
   <glyph unicode="&#x3B4;" horiz-adv-x="1140" d="M174,1466l801,0l0,-146l-560,0C482,1252 586,1169 728,1071C855,983 943,901 993,826C1043,751 1068,649 1068,520C1068,347 1022,214 929,119C836,24 714,-24 565,-24C402,-24 279,29 196,136C113,243 72,369 72,516C72,687 116,817 203,907C290,996 395,1043 516,1048C454,1091 340,1187 174,1336M256,514C256,401 286,307 346,234C405,161 481,124 574,124C655,124 727,155 790,218C852,281 883,380 883,515C883,640 853,737 794,806C735,875 660,909 570,909C471,909 394,870 339,793C284,716 256,623 256,514z"/>
   <glyph unicode="&#x3B5;" horiz-adv-x="913" d="M829,942l-129,-104C618,900 541,931 470,931C411,931 369,915 342,884C315,853 301,819 301,783C301,736 321,698 361,667C401,636 460,620 537,620C547,620 564,620 587,621l0,-151C566,471 550,471 539,471C444,471 378,453 341,416C304,379 285,338 285,292C285,245 304,205 341,173C378,140 423,124 474,124C568,124 656,168 738,255l129,-109C760,33 628,-24 469,-24C344,-24 251,8 190,71C129,134 98,208 98,292C98,413 157,498 274,549C176,604 127,681 127,778C127,857 156,929 214,992C272,1055 361,1086 481,1086C618,1086 734,1038 829,942z"/>
   <glyph unicode="&#x3C3;" horiz-adv-x="1264" d="M1219,1062l0,-146l-289,0C1019,833 1063,705 1063,530C1063,340 1015,200 918,111C821,21 703,-24 564,-24C420,-24 301,23 208,116C115,209 68,348 68,531C68,720 117,859 214,950C311,1041 427,1086 564,1086C614,1086 671,1078 734,1062M561,937C474,937 401,903 342,835C283,767 253,665 253,530C253,395 282,294 340,226C397,158 472,124 564,124C661,124 738,160 795,231C852,302 880,402 880,531C880,649 854,746 802,823C749,899 669,937 561,937z"/>
   <glyph unicode="&#x3C4;" horiz-adv-x="809" d="M506,916l0,-916l-180,0l0,916l-280,0l0,146l716,0l0,-146z"/>
   <glyph unicode="&#x3C6;" horiz-adv-x="1328" d="M499,1083l-35,-156C326,881 257,760 257,565C257,462 284,370 339,289C393,208 474,155 582,132l0,660C582,863 587,917 597,956C607,994 630,1025 666,1050C701,1074 750,1086 811,1086C906,1086 984,1067 1044,1028C1103,989 1154,928 1195,845C1236,762 1257,672 1257,576C1257,496 1241,416 1208,336C1175,255 1122,181 1049,114C976,47 879,0 760,-25l0,-382l-178,0l0,382C458,-25 342,29 234,138C126,247 72,386 72,557C72,715 115,843 202,941C288,1038 387,1086 499,1083M760,140C845,155 917,203 978,282C1038,361 1068,465 1068,594C1068,713 1046,800 1002,855C958,910 911,937 862,937C827,937 801,925 785,901C768,876 760,823 760,740z"/>
   <glyph unicode="&#x2017;" horiz-adv-x="1131" d="M-31,-407l0,130l1193,0l0,-130M-31,-665l0,129l1193,0l0,-129z"/>
   <glyph unicode="&#x203C;" horiz-adv-x="1024" d="M231,364l-55,777l0,325l223,0l0,-325l-52,-777M184,0l0,205l207,0l0,-205M679,364l-55,777l0,325l223,0l0,-325l-52,-777M632,0l0,205l207,0l0,-205z"/>
   <glyph unicode="&#x207F;" horiz-adv-x="747" d="M82,519l0,665l130,0l0,-69C239,1142 270,1163 305,1177C339,1191 377,1198 420,1198C475,1198 522,1188 560,1167C598,1146 625,1118 642,1085C659,1051 667,998 667,925l0,-406l-141,0l0,401C526,979 515,1020 494,1043C472,1066 438,1077 393,1077C339,1077 297,1062 268,1031C238,1000 223,950 223,881l0,-362z"/>
   <glyph unicode="&#x20A7;" horiz-adv-x="2240" d="M51,1466l462,0C669,1466 788,1423 870,1337C933,1271 968,1180 977,1064l92,0l0,310l182,-1l0,-309l320,0C1628,1083 1687,1092 1748,1092C1874,1092 1976,1058 2055,990C2118,935 2151,860 2154,763l-187,1C1963,819 1944,862 1909,891C1874,920 1823,934 1755,934C1687,934 1636,921 1603,894C1569,867 1552,839 1552,808C1552,771 1571,741 1609,717C1646,693 1718,668 1824,643C1929,618 2005,592 2052,565C2098,538 2133,501 2158,456C2183,411 2195,363 2195,313C2195,224 2156,146 2078,77C1999,8 1895,-26 1764,-26C1681,-26 1613,-14 1560,11C1507,36 1458,76 1412,131l-1,-131C1392,-5 1375,-9 1360,-12C1344,-15 1330,-16 1318,-16C1220,-16 1149,10 1106,62C1081,91 1069,140 1069,208l0,711l-102,0C946,842 912,778 864,728C816,678 754,642 678,620C625,605 534,598 404,598l-159,0l0,-598l-194,0M245,1295l0,-528l132,0C484,767 563,775 614,792C665,809 706,837 735,878C764,919 779,970 779,1031C779,1086 767,1134 743,1175C719,1215 686,1245 645,1265C603,1285 538,1295 450,1295M1251,919l0,-655l-1,-31C1250,208 1258,188 1273,173C1288,158 1311,151 1340,151C1348,151 1356,152 1365,154C1374,155 1383,158 1392,161C1377,192 1366,221 1360,246C1354,271 1351,302 1350,338l182,-1C1537,271 1562,220 1605,183C1648,146 1705,127 1777,127C1847,127 1907,147 1958,188C1996,219 2015,254 2015,294C2015,325 2003,351 1980,372C1949,400 1878,429 1766,460C1653,490 1578,515 1541,534C1484,565 1442,600 1415,640C1388,680 1374,726 1374,778C1374,829 1385,876 1406,918z"/>
   <glyph unicode="&#x2190;" horiz-adv-x="2048" d="M492,876l76,0C529,797 499,742 480,711C460,679 424,631 373,567l1595,0l0,-101l-1595,0C442,394 508,291 571,157l-78,0C407,253 333,326 271,376C209,425 145,466 79,498l0,45C137,568 198,605 263,656C328,707 404,780 492,876z"/>
   <glyph unicode="&#x2191;" horiz-adv-x="1024" d="M153,926C250,1015 323,1091 374,1156C424,1221 461,1282 486,1339l46,0C563,1273 604,1209 654,1147C703,1085 776,1011 872,925l0,-77C738,911 635,976 563,1045l0,-1474l-101,0l0,1474C398,994 350,959 319,939C287,919 232,889 153,850z"/>
   <glyph unicode="&#x2192;" horiz-adv-x="2048" d="M1555,876C1644,779 1720,706 1785,656C1850,605 1911,568 1968,543l0,-45C1902,466 1838,425 1776,376C1714,326 1640,253 1554,157l-77,0C1540,291 1605,394 1674,466l-1595,0l0,101l1595,0C1623,632 1588,680 1568,711C1548,742 1518,797 1479,876z"/>
   <glyph unicode="&#x2193;" horiz-adv-x="1024" d="M153,-16l0,76C232,21 288,-9 319,-29C350,-49 398,-84 462,-135l0,1474l101,0l0,-1474C635,-66 738,-1 872,62l0,-77C776,-101 703,-175 654,-237C604,-299 563,-363 532,-429l-46,0C461,-372 424,-311 374,-246C323,-181 250,-105 153,-16z"/>
   <glyph unicode="&#x2194;" horiz-adv-x="2048" d="M1968,540l0,-45C1905,466 1844,428 1783,379C1722,330 1649,257 1562,158l-80,0C1528,273 1593,376 1676,469l-1305,0C454,376 519,273 565,158l-80,0C398,257 325,330 264,379C203,428 142,466 79,495l0,45C142,569 203,608 264,657C325,705 398,779 485,878l80,0C519,763 454,660 371,567l1305,0C1593,660 1528,763 1482,878l80,0C1649,779 1722,705 1783,657C1844,608 1905,569 1968,540z"/>
   <glyph unicode="&#x2195;" horiz-adv-x="1024" d="M489,1463l45,0C563,1400 602,1339 651,1278C699,1217 772,1143 871,1056l0,-80C757,1022 653,1087 560,1171l0,-1306C653,-51 757,14 871,59l0,-79C772,-107 699,-180 651,-241C602,-302 563,-364 534,-427l-45,0C460,-364 422,-302 373,-241C324,-180 251,-107 152,-20l0,79C266,14 370,-51 463,-135l0,1306C370,1087 266,1022 152,976l0,80C251,1143 324,1217 373,1278C422,1339 460,1400 489,1463z"/>
   <glyph unicode="&#x21A8;" horiz-adv-x="1024" d="M489,1463l45,0C563,1400 602,1339 651,1278C699,1217 772,1143 871,1056l0,-80C757,1022 653,1087 560,1171l0,-1306C653,-51 757,14 871,59l0,-79C772,-107 699,-180 651,-241C602,-302 563,-364 534,-427l-45,0C460,-364 422,-302 373,-241C324,-180 251,-107 152,-20l0,79C266,14 370,-51 463,-135l0,1306C370,1087 266,1022 152,976l0,80C251,1143 324,1217 373,1278C422,1339 460,1400 489,1463M154,-522l717,0l0,-98l-717,0z"/>
   <glyph unicode="&#x221F;" horiz-adv-x="2005" d="M362,1279l100,0l0,-1179l1181,0l0,-100l-1281,0z"/>
   <glyph unicode="&#x2229;" horiz-adv-x="1472" d="M293,0l-135,0l0,621C158,795 160,905 165,951C173,1034 188,1103 211,1157C234,1211 270,1264 320,1316C369,1368 431,1410 504,1443C577,1476 654,1492 737,1492C816,1492 892,1477 964,1446C1035,1415 1098,1372 1151,1319C1204,1266 1243,1209 1266,1149C1289,1089 1304,1014 1311,924C1314,889 1315,788 1315,621l0,-621l-134,0l0,628C1181,779 1179,876 1175,918C1168,994 1156,1055 1139,1100C1121,1145 1094,1187 1057,1226C1020,1265 972,1298 915,1323C857,1348 797,1361 736,1361C675,1361 614,1348 554,1321C494,1294 445,1259 407,1216C368,1172 341,1124 326,1072C311,1020 301,959 296,890C294,854 293,767 293,628z"/>
   <glyph unicode="&#x2261;" horiz-adv-x="1195" d="M1082,1085l-968,0l0,167l968,0M1082,639l-968,0l0,168l968,0M1082,194l-968,0l0,168l968,0z"/>
   <glyph unicode="&#x2302;" horiz-adv-x="1237" d="M157,0l0,634l461,519l462,-519l0,-634M238,81l761,0l0,519l-381,427l-380,-427z"/>
   <glyph unicode="&#x2310;" horiz-adv-x="1196" d="M113,424l0,606l968,0l0,-168l-798,0l0,-438z"/>
   <glyph unicode="&#x2320;" horiz-adv-x="1237" d="M691,-515l-145,0l0,1811C546,1442 576,1552 636,1626C695,1700 763,1737 838,1737C883,1737 917,1726 941,1705C964,1683 976,1657 976,1628C976,1601 968,1579 951,1562C934,1545 913,1536 888,1536C868,1536 849,1541 831,1551C819,1558 805,1573 790,1598C774,1622 758,1634 743,1634C732,1634 721,1630 712,1622C705,1617 701,1608 698,1595C693,1573 691,1527 691,1456z"/>
   <glyph unicode="&#x2321;" horiz-adv-x="1237" d="M546,1737l145,0l0,-1811C691,-220 661,-330 602,-404C542,-478 474,-515 399,-515C354,-515 320,-504 297,-482C273,-461 261,-435 261,-406C261,-379 270,-357 287,-340C304,-323 324,-314 348,-314C369,-314 388,-319 407,-330C419,-337 433,-352 448,-376C463,-400 479,-412 494,-412C505,-412 516,-408 525,-400C532,-395 536,-386 539,-372C544,-351 546,-305 546,-234z"/>
   <glyph unicode="&#x2500;" horiz-adv-x="1451" d="M1473,534l-1496,0l0,175l1496,0z"/>
   <glyph unicode="&#x2502;" horiz-adv-x="1280" d="M457,-621l0,2485l175,0l0,-2485z"/>
   <glyph unicode="&#x250C;" horiz-adv-x="1451" d="M1474,709l0,-175l-661,0l0,-1155l-175,0l0,1330z"/>
   <glyph unicode="&#x2510;" horiz-adv-x="1451" d="M637,534l-660,0l0,175l835,0l0,-1330l-175,0z"/>
   <glyph unicode="&#x2514;" horiz-adv-x="1451" d="M638,534l0,1330l175,0l0,-1155l661,0l0,-175z"/>
   <glyph unicode="&#x2518;" horiz-adv-x="1451" d="M812,534l-835,0l0,175l660,0l0,1155l175,0z"/>
   <glyph unicode="&#x251C;" horiz-adv-x="1451" d="M638,-621l0,2485l175,0l0,-1155l661,0l0,-175l-661,0l0,-1155z"/>
   <glyph unicode="&#x2524;" horiz-adv-x="1451" d="M637,-621l0,1155l-660,0l0,175l660,0l0,1155l175,0l0,-2485z"/>
   <glyph unicode="&#x252C;" horiz-adv-x="1451" d="M637,534l-660,0l0,175l1496,0l0,-175l-661,0l0,-1155l-175,0z"/>
   <glyph unicode="&#x2534;" horiz-adv-x="1451" d="M1473,534l-1496,0l0,175l660,0l0,1155l175,0l0,-1155l661,0z"/>
   <glyph unicode="&#x253C;" horiz-adv-x="1451" d="M637,534l-660,0l0,175l660,0l0,1155l175,0l0,-1155l661,0l0,-175l-661,0l0,-1155l-175,0z"/>
   <glyph unicode="&#x2550;" horiz-adv-x="1451" d="M1473,724l-1496,0l0,175l1496,0M1473,344l-1496,0l0,175l1496,0z"/>
   <glyph unicode="&#x2551;" horiz-adv-x="1451" d="M828,-621l0,2485l175,0l0,-2485M448,-621l0,2485l175,0l0,-2485z"/>
   <glyph unicode="&#x2552;" horiz-adv-x="1451" d="M638,-621l0,1520l836,0l0,-175l-661,0l0,-205l661,0l0,-175l-661,0l0,-965z"/>
   <glyph unicode="&#x2553;" horiz-adv-x="1451" d="M448,-621l0,1330l1026,0l0,-175l-471,0l0,-1155l-175,0l0,1140l-205,0l0,-1140z"/>
   <glyph unicode="&#x2554;" horiz-adv-x="1451" d="M623,-621l-175,0l0,1520l1025,0l0,-175l-850,0M1003,344l0,-965l-175,0l0,1140l645,0l0,-175z"/>
   <glyph unicode="&#x2555;" horiz-adv-x="1451" d="M637,344l-660,0l0,175l660,0l0,205l-660,0l0,175l835,0l0,-1520l-175,0z"/>
   <glyph unicode="&#x2556;" horiz-adv-x="1451" d="M447,-621l1,1155l-471,0l0,175l1025,0l0,-1330l-175,0l0,1155l-205,0l0,-1155z"/>
   <glyph unicode="&#x2557;" horiz-adv-x="1451" d="M827,-621l0,1345l-850,0l0,175l1025,0l0,-1520M447,344l-470,0l0,175l645,0l0,-1140l-175,0z"/>
   <glyph unicode="&#x2558;" horiz-adv-x="1451" d="M638,344l0,1520l175,0l0,-965l661,0l0,-175l-661,0l0,-205l661,0l0,-175z"/>
   <glyph unicode="&#x2559;" horiz-adv-x="1451" d="M1474,534l-1026,0l0,1330l175,0l0,-1155l205,0l0,1155l175,0l0,-1155l471,0z"/>
   <glyph unicode="&#x255A;" horiz-adv-x="1451" d="M623,1864l0,-1345l850,0l0,-175l-1025,0l0,1520M1003,899l470,0l0,-175l-645,0l0,1140l175,0z"/>
   <glyph unicode="&#x255B;" horiz-adv-x="1451" d="M812,344l-835,0l0,175l660,0l0,205l-660,0l0,175l660,0l0,965l175,0z"/>
   <glyph unicode="&#x255C;" horiz-adv-x="1451" d="M1002,534l-1025,0l0,175l470,0l0,1155l175,0l0,-1155l205,0l0,1155l175,0z"/>
   <glyph unicode="&#x255D;" horiz-adv-x="1451" d="M827,1864l175,0l0,-1520l-1025,0l0,175l850,0M447,899l0,965l175,0l0,-1140l-645,0l0,175z"/>
   <glyph unicode="&#x255E;" horiz-adv-x="1451" d="M638,-621l0,2485l175,0l0,-965l661,0l0,-175l-661,0l0,-205l661,0l0,-175l-661,0l0,-965z"/>
   <glyph unicode="&#x255F;" horiz-adv-x="1451" d="M828,-621l0,2485l175,0l0,-1155l471,0l0,-175l-471,0l0,-1155M448,-621l0,2485l175,0l0,-2485z"/>
   <glyph unicode="&#x2560;" horiz-adv-x="1451" d="M448,-621l0,2485l175,0l0,-2485M828,724l0,1140l175,0l0,-965l471,0l0,-175M828,-621l0,1140l646,0l0,-175l-471,0l0,-965z"/>
   <glyph unicode="&#x2561;" horiz-adv-x="1451" d="M637,344l-660,0l0,175l661,0l-1,205l-660,0l0,175l660,0l0,965l175,0l0,-2485l-175,0z"/>
   <glyph unicode="&#x2562;" horiz-adv-x="1451" d="M447,-621l1,1155l-471,0l0,175l470,0l0,1155l175,0l0,-2485M827,-621l0,2485l175,0l0,-2485z"/>
   <glyph unicode="&#x2563;" horiz-adv-x="1451" d="M827,-621l0,2485l175,0l0,-2485M622,1864l0,-1140l-645,0l0,175l470,0l0,965M447,344l-470,0l0,175l645,0l0,-1140l-175,0z"/>
   <glyph unicode="&#x2564;" horiz-adv-x="1451" d="M1473,724l-1496,0l0,175l1496,0M637,344l-660,0l0,175l1496,0l0,-175l-661,0l0,-965l-175,0z"/>
   <glyph unicode="&#x2565;" horiz-adv-x="1451" d="M447,-621l1,1155l-471,0l0,175l1496,0l0,-175l-471,0l0,-1155l-175,0l0,1140l-205,0l0,-1140z"/>
   <glyph unicode="&#x2566;" horiz-adv-x="1451" d="M1473,724l-1496,0l0,175l1496,0M447,344l-470,0l0,175l645,0l0,-1140l-175,0M827,-621l0,1140l646,0l0,-175l-471,0l0,-965z"/>
   <glyph unicode="&#x2567;" horiz-adv-x="1451" d="M1473,724l-1496,0l0,175l660,0l0,965l175,0l0,-965l661,0M1473,344l-1496,0l0,175l1496,0z"/>
   <glyph unicode="&#x2568;" horiz-adv-x="1451" d="M1473,534l-1496,0l0,175l470,0l0,1155l175,0l0,-1155l205,0l0,1155l175,0l0,-1155l471,0z"/>
   <glyph unicode="&#x2569;" horiz-adv-x="1451" d="M622,724l-645,0l0,175l470,0l0,965l175,0M1473,724l-646,0l0,1140l175,0l0,-965l471,0M1473,344l-1496,0l0,175l1496,0z"/>
   <glyph unicode="&#x256A;" horiz-adv-x="1451" d="M637,344l-660,0l0,175l660,0l0,205l-660,0l0,175l660,0l0,965l175,0l0,-965l661,0l0,-175l-661,0l0,-205l661,0l0,-175l-661,0l0,-965l-175,0z"/>
   <glyph unicode="&#x256B;" horiz-adv-x="1451" d="M447,-621l1,1155l-471,0l0,175l470,0l0,1155l175,0l0,-1155l205,0l0,1155l175,0l0,-1155l471,0l0,-175l-471,0l0,-1155l-175,0l0,1155l-205,0l0,-1155z"/>
   <glyph unicode="&#x256C;" horiz-adv-x="1451" d="M1003,899l470,0l0,-175l-645,0l0,1140l175,0M447,899l0,965l175,0l0,-1140l-645,0l0,175M447,344l-470,0l0,175l645,0l0,-1140l-175,0M1003,344l0,-965l-175,0l0,1140l645,0l0,-175z"/>
   <glyph unicode="&#x2580;" horiz-adv-x="1451" d="M1473,621l-1496,0l0,1243l1496,0z"/>
   <glyph unicode="&#x2584;" horiz-adv-x="1451" d="M1473,-621l-1496,0l0,1242l1496,0z"/>
   <glyph unicode="&#x2588;" horiz-adv-x="1451" d="M-23,-621l0,2485l1496,0l0,-2485z"/>
   <glyph unicode="&#x258C;" horiz-adv-x="1451" d="M-23,-621l0,2485l748,0l0,-2485z"/>
   <glyph unicode="&#x2590;" horiz-adv-x="1451" d="M726,-621l0,2485l748,0l0,-2485z"/>
   <glyph unicode="&#x2591;" horiz-adv-x="1451" d="M102,1864l125,0l0,-125l-125,0M600,1864l125,0l0,-125l-125,0M1099,1864l125,0l0,-125l-125,0M351,1615l125,0l0,-125l-125,0M850,1615l124,0l0,-125l-124,0M1348,1615l125,0l0,-125l-125,0M1099,1366l125,0l0,-125l-125,0M600,1366l125,0l0,-125l-125,0M102,1366l125,0l0,-125l-125,0M1348,1116l125,0l0,-124l-125,0M850,1116l124,0l0,-124l-124,0M351,1116l125,0l0,-124l-125,0M102,867l125,0l0,-125l-125,0M600,867l125,0l0,-125l-125,0M1099,867l125,0l0,-125l-125,0M1348,618l125,0l0,-125l-125,0M850,618l124,0l0,-125l-124,0M351,618l125,0l0,-125l-125,0M102,369l125,0l0,-125l-125,0M600,369l125,0l0,-125l-125,0M1099,369l125,0l0,-125l-125,0M351,119l125,0l0,-124l-125,0M850,119l124,0l0,-124l-124,0M1348,119l125,0l0,-124l-125,0M1099,-130l125,0l0,-125l-125,0M600,-130l125,0l0,-125l-125,0M102,-130l125,0l0,-125l-125,0M351,-379l125,0l0,-125l-125,0M850,-379l124,0l0,-125l-124,0M1348,-379l125,0l0,-125l-125,0z"/>
   <glyph unicode="&#x2592;" horiz-adv-x="1451" d="M103,1864l124,0l0,-125l-124,0M352,1864l124,0l0,-125l-124,0M601,1864l125,0l0,-125l-125,0M850,1864l125,0l0,-125l-125,0M1100,1864l124,0l0,-125l-124,0M1349,1864l124,0l0,-125l-124,0M-22,1615l125,0l0,-125l-125,0M227,1615l125,0l0,-125l-125,0M476,1615l125,0l0,-125l-125,0M726,1615l124,0l0,-125l-124,0M975,1615l125,0l0,-125l-125,0M1224,1615l125,0l0,-125l-125,0M1224,1615l125,0l0,-125l-125,0M1224,1615l125,0l0,-125l-125,0M103,1366l124,0l0,-125l-124,0M352,1366l124,0l0,-125l-124,0M601,1366l125,0l0,-125l-125,0M850,1366l125,0l0,-125l-125,0M1100,1366l124,0l0,-125l-124,0M1349,1366l124,0l0,-125l-124,0M-22,1116l125,0l0,-124l-125,0M227,1116l125,0l0,-124l-125,0M476,1116l125,0l0,-124l-125,0M726,1116l124,0l0,-124l-124,0M975,1116l125,0l0,-124l-125,0M1224,1116l125,0l0,-124l-125,0l0,124l125,0l0,-124l-125,0M1224,1116l125,0l0,-124l-125,0M103,867l124,0l0,-125l-124,0M352,867l124,0l0,-125l-124,0M601,867l125,0l0,-125l-125,0M850,867l125,0l0,-125l-125,0M1100,867l124,0l0,-125l-124,0M1349,867l124,0l0,-125l-124,0M-22,618l125,0l0,-125l-125,0M476,618l125,0l0,-125l-125,0M726,618l124,0l0,-125l-124,0M975,618l125,0l0,-125l-125,0M1224,618l125,0l0,-125l-125,0M227,618l125,0l0,-125l-125,0M1349,369l124,0l0,-125l-124,0M1100,369l124,0l0,-125l-124,0M850,369l125,0l0,-125l-125,0M601,369l125,0l0,-125l-125,0M352,369l124,0l0,-125l-124,0M103,369l124,0l0,-125l-124,0M-22,119l125,0l0,-124l-125,0M227,119l125,0l0,-124l-125,0M476,119l125,0l0,-124l-125,0M726,119l124,0l0,-124l-124,0M975,119l125,0l0,-124l-125,0M1224,119l125,0l0,-124l-125,0M1349,-130l124,0l0,-125l-124,0M1100,-130l124,0l0,-125l-124,0M850,-130l125,0l0,-125l-125,0M601,-130l125,0l0,-125l-125,0M352,-130l124,0l0,-125l-124,0M103,-130l124,0l0,-125l-124,0M-22,-379l125,0l0,-125l-125,0M227,-379l125,0l0,-125l-125,0M476,-379l125,0l0,-125l-125,0M726,-379l124,0l0,-125l-124,0M975,-379l125,0l0,-125l-125,0M1224,-379l125,0l0,-125l-125,0z"/>
   <glyph unicode="&#x2593;" horiz-adv-x="1493" d="M1494,1490l0,-374l-124,0l0,-124l124,0l0,-374l-124,0l0,-125l124,0l0,-374l-124,0l0,-124l124,0l0,-374l-124,0l0,-125l124,0l0,-124l-1495,0l0,373l125,0l0,125l-125,0l0,374l125,0l0,125l-125,0l0,373l125,0l0,125l-125,0l0,374l125,0l0,125l-125,0l0,373l125,0l0,125l124,0l0,-125l125,0l0,125l124,0l0,-125l125,0l0,125l125,0l0,-125l124,0l0,125l125,0l0,-125l125,0l0,125l124,0l0,-125l125,0l0,125l124,0l0,-249l-124,0l0,-125M124,1615l0,-125l124,0l0,125M373,1615l0,-125l124,0l0,125M622,1615l0,-125l125,0l0,125M871,1615l0,-125l125,0l0,125M1121,1615l0,-125l124,0l0,125M1370,1366l-125,0l0,-125l125,0M1121,1366l-125,0l0,-125l125,0M871,1366l-124,0l0,-125l124,0M622,1366l-125,0l0,-125l125,0M373,1366l-125,0l0,-125l125,0M124,1116l0,-124l124,0l0,124M373,1116l0,-124l124,0l0,124M622,1116l0,-124l125,0l0,124M871,1116l0,-124l125,0l0,124M1121,1116l0,-124l124,0l0,124M373,867l-125,0l0,-125l125,0M497,867l0,-125l125,0l0,125M747,867l0,-125l124,0l0,125M996,867l0,-125l125,0l0,125M1245,867l0,-125l125,0l0,125M124,618l0,-125l124,0l0,125M622,618l0,-125l125,0l0,125M497,493l0,125l-124,0l0,-125M871,618l0,-125l125,0l0,125M1121,618l0,-125l124,0l0,125M1370,244l0,125l-125,0l0,-125M1121,244l0,125l-125,0l0,-125M871,244l0,125l-124,0l0,-125M622,244l0,125l-125,0l0,-125M373,244l0,125l-125,0l0,-125M124,119l0,-124l124,0l0,124M373,119l0,-124l124,0l0,124M622,119l0,-124l125,0l0,124M871,119l0,-124l125,0l0,124M1121,119l0,-124l124,0l0,124M1370,-255l0,125l-125,0l0,-125M1121,-255l0,125l-125,0l0,-125M871,-255l0,125l-124,0l0,-125M622,-255l0,125l-125,0l0,-125M373,-255l0,125l-125,0l0,-125M124,-379l0,-125l124,0l0,125M373,-379l0,-125l124,0l0,125M622,-379l0,-125l125,0l0,125M871,-379l0,-125l125,0l0,125M1121,-379l0,-125l124,0l0,125z"/>
   <glyph unicode="&#x25A0;" horiz-adv-x="1237" d="M146,944l944,0l0,-944l-944,0z"/>
   <glyph unicode="&#x25AC;" horiz-adv-x="2048" d="M0,703l2047,0l0,-386l-2047,0z"/>
   <glyph unicode="&#x25B2;" horiz-adv-x="2027" d="M304,0l710,1419l710,-1419z"/>
   <glyph unicode="&#x25BA;" horiz-adv-x="2027" d="M288,1417l1451,-724l-1451,-724z"/>
   <glyph unicode="&#x25BC;" horiz-adv-x="2027" d="M1724,1388l-710,-1419l-710,1419z"/>
   <glyph unicode="&#x25C4;" horiz-adv-x="2027" d="M1739,1417l0,-1448l-1451,724z"/>
   <glyph unicode="&#x25CB;" horiz-adv-x="1237" d="M618,1018C692,1018 764,999 835,961C906,923 961,869 1000,798C1039,727 1059,654 1059,578C1059,456 1016,352 930,266C844,180 740,137 619,137C497,137 393,180 307,266C221,352 178,456 178,578C178,655 198,728 237,799C276,869 331,923 402,961C473,999 545,1018 618,1018M619,942C557,942 497,926 439,895C381,864 336,819 303,760C270,701 254,641 254,578C254,477 290,391 361,320C432,249 518,213 619,213C720,213 806,249 877,320C948,391 983,477 983,578C983,641 967,701 934,760C901,819 856,864 798,895C740,926 680,942 619,942z"/>
   <glyph unicode="&#x25D8;" horiz-adv-x="1237" d="M128,0l0,980l980,0l0,-980M618,692C562,692 514,672 475,633C436,594 416,546 416,490C416,435 436,387 476,348C515,308 563,288 618,288C674,288 722,308 761,348C800,387 820,435 820,490C820,546 800,594 761,633C722,672 674,692 618,692z"/>
   <glyph unicode="&#x25D9;" horiz-adv-x="1237" d="M42,0l0,1155l1155,0l0,-1155M620,1018C545,1018 473,999 403,961C332,923 277,869 238,798C199,727 179,654 179,577C179,456 222,352 308,266C394,180 498,137 620,137C741,137 845,180 931,266C1017,352 1060,456 1060,577C1060,654 1040,727 1001,798C962,869 907,923 837,961C766,999 694,1018 620,1018M620,942C681,942 740,926 799,895C857,864 902,819 935,761C968,702 984,641 984,577C984,476 949,391 878,320C807,249 721,213 620,213C519,213 433,249 362,320C291,391 255,476 255,577C255,641 271,702 304,761C337,819 382,864 441,895C499,926 559,942 620,942z"/>
   <glyph unicode="&#x263A;" horiz-adv-x="2091" d="M1683,518C1683,342 1621,192 1497,68C1372,-57 1222,-119 1046,-119C870,-119 720,-57 595,68C470,192 408,342 408,518C408,695 470,845 595,970C720,1094 870,1156 1046,1156C1222,1156 1372,1094 1497,970C1621,845 1683,695 1683,518M1591,518C1591,669 1538,797 1432,904C1325,1010 1197,1063 1046,1063C895,1063 767,1010 661,904C554,797 501,669 501,518C501,368 554,240 661,134C767,27 895,-26 1046,-26C1197,-26 1325,27 1432,134C1538,240 1591,368 1591,518M882,650C882,628 874,609 859,593C843,577 824,569 801,569C779,569 760,577 744,593C728,609 720,628 720,650C720,673 728,692 744,708C760,723 779,731 801,731C824,731 843,723 859,708C874,692 882,673 882,650M1371,650C1371,628 1363,609 1348,593C1332,577 1313,569 1290,569C1268,569 1249,577 1233,593C1217,609 1209,628 1209,650C1209,673 1217,692 1233,708C1249,723 1268,731 1290,731C1313,731 1332,723 1348,708C1363,692 1371,673 1371,650M752,313l62,36C867,253 944,205 1046,205C1148,205 1225,253 1277,349l63,-36C1307,250 1266,201 1217,168C1168,135 1111,118 1046,118C981,118 924,135 875,168C826,201 785,250 752,313z"/>
   <glyph unicode="&#x263B;" horiz-adv-x="2155" d="M1715,518C1715,342 1653,192 1529,68C1404,-57 1254,-119 1078,-119C902,-119 752,-57 627,68C502,192 440,342 440,518C440,695 502,845 627,970C752,1094 902,1156 1078,1156C1254,1156 1404,1094 1529,970C1653,845 1715,695 1715,518M914,650C914,673 906,692 891,708C875,723 856,731 833,731C811,731 792,723 776,708C760,692 752,673 752,650C752,628 760,609 776,593C792,577 811,569 833,569C856,569 875,577 891,593C906,609 914,628 914,650M1403,650C1403,673 1395,692 1380,708C1364,723 1345,731 1322,731C1300,731 1281,723 1265,708C1249,692 1241,673 1241,650C1241,628 1249,609 1265,593C1281,577 1300,569 1322,569C1345,569 1364,577 1380,593C1395,609 1403,628 1403,650M784,313C817,250 858,201 907,168C956,135 1013,118 1078,118C1143,118 1200,135 1249,168C1298,201 1339,250 1372,313l-63,36C1257,253 1180,205 1078,205C976,205 899,253 846,349z"/>
   <glyph unicode="&#x263C;" horiz-adv-x="1877" d="M902,1621l76,0l0,-337C1046,1279 1107,1267 1160,1246C1213,1225 1268,1190 1327,1143l290,284l52,-53l-286,-286C1432,1025 1466,968 1486,919C1511,855 1525,792 1526,730l336,0l0,-69l-335,0C1514,535 1467,419 1384,314l285,-291l-57,-50l-283,282C1264,207 1207,174 1158,155C1109,136 1049,122 978,114l0,-337l-76,0l0,337C827,124 765,139 714,160C663,181 610,211 557,252l-294,-278l-51,51l285,286C453,367 420,422 397,477C374,532 359,594 352,665l-336,0l0,69l336,0C358,805 372,867 394,920C416,973 450,1027 496,1083l-284,287l48,57l292,-282C619,1192 679,1225 732,1246C784,1266 841,1279 902,1284M1450,699C1450,840 1400,961 1300,1061C1199,1161 1078,1211 937,1211C796,1211 675,1161 575,1061C475,961 425,840 425,699C425,558 475,437 575,337C675,236 796,186 937,186C1078,186 1199,236 1300,337C1400,437 1450,558 1450,699z"/>
   <glyph unicode="&#x2640;" horiz-adv-x="1536" d="M796,461l0,-402l459,0l0,-59l-459,0l0,-439l-59,0l0,439l-460,0l0,59l460,0l0,402C668,461 593,483 512,527C430,570 365,634 317,718C268,801 244,890 244,983C244,1074 267,1161 314,1244C360,1327 424,1392 507,1438C590,1484 677,1507 768,1507C859,1507 946,1484 1029,1438C1112,1391 1176,1327 1222,1244C1268,1161 1291,1074 1291,983C1291,844 1243,724 1148,623C1052,522 935,468 796,461M767,1451C688,1451 612,1431 537,1391C462,1350 403,1292 361,1217C319,1142 298,1063 298,982C298,852 344,741 436,650C527,558 638,512 767,512C897,512 1008,558 1100,650C1191,741 1237,852 1237,982C1237,1063 1216,1142 1174,1217C1132,1292 1074,1350 999,1391C924,1431 846,1451 767,1451z"/>
   <glyph unicode="&#x2642;" horiz-adv-x="1536" d="M1216,1620l36,-16l163,-666l-57,-15l-142,581l-358,-768C957,686 1031,619 1082,534C1133,449 1158,359 1158,262C1158,171 1135,85 1089,2C1043,-81 979,-146 896,-192C813,-239 725,-262 634,-262C543,-262 457,-239 374,-192C291,-146 226,-81 180,2C134,85 111,171 111,262C111,407 162,530 265,632C367,734 491,785 637,785C689,785 744,776 803,758l360,771l-537,-265l-24,53M634,731C555,731 479,711 404,671C329,630 270,572 228,497C186,422 165,343 165,262C165,132 211,21 303,-70C394,-162 505,-208 634,-208C764,-208 875,-162 967,-70C1058,21 1104,132 1104,262C1104,343 1083,422 1041,497C999,572 941,630 866,671C791,711 713,731 634,731z"/>
   <glyph unicode="&#x2660;" horiz-adv-x="1088" d="M545,1231C562,1159 589,1095 625,1038C661,981 725,911 818,828C910,744 968,680 993,635C1018,590 1030,545 1030,499C1030,435 1009,382 966,339C923,296 871,275 810,275C758,275 711,291 669,324C626,356 589,403 556,465C557,367 570,289 595,232C620,174 660,129 715,96C770,63 843,43 934,37l7,-37l-793,0l8,37C279,37 374,73 442,145C509,216 542,323 539,465C509,402 472,354 428,323C383,291 333,275 277,275C217,275 166,297 123,340C80,383 58,435 58,496C58,545 69,589 91,628C121,683 170,738 237,793C304,848 354,894 386,930C435,985 470,1035 493,1078C515,1121 532,1172 545,1231z"/>
   <glyph unicode="&#x2663;" horiz-adv-x="1344" d="M1098,0l-848,0l8,34C368,57 441,80 477,103C531,137 575,187 610,254C644,321 661,391 661,465C661,476 661,491 660,511C619,428 570,368 512,330C453,292 394,273 333,273C256,273 190,300 136,354C82,408 55,474 55,553C55,630 80,696 129,749C178,802 234,828 297,828C337,828 391,811 460,777C432,824 414,859 406,883C397,906 393,932 393,959C393,1035 419,1099 472,1152C525,1205 590,1231 669,1231C748,1231 814,1205 868,1152C921,1099 948,1037 948,964C948,905 925,842 879,777C935,804 969,819 980,822C998,827 1018,830 1041,830C1108,830 1166,804 1215,752C1264,699 1288,634 1288,557C1288,477 1261,410 1208,356C1154,301 1089,274 1014,274C972,274 929,284 885,305C840,325 802,352 769,386C746,411 717,452 682,511C685,405 701,321 731,260C760,198 806,147 867,106C908,79 983,55 1090,34z"/>
   <glyph unicode="&#x2665;" horiz-adv-x="1216" d="M610,-24C589,55 560,129 522,198C483,267 409,374 299,519C218,626 169,693 150,722C119,769 97,812 84,851C70,890 63,929 63,969C63,1043 88,1105 137,1155C186,1205 247,1230 320,1230C393,1230 457,1204 511,1152C552,1113 585,1056 610,979C632,1054 663,1112 703,1151C758,1204 822,1231 895,1231C967,1231 1028,1206 1078,1157C1128,1107 1153,1048 1153,979C1153,919 1138,857 1109,792C1080,727 1023,641 939,536C830,398 750,285 700,196C661,126 631,53 610,-24z"/>
   <glyph unicode="&#x2666;" horiz-adv-x="1045" d="M521,1231C580,1130 653,1022 740,907C840,774 921,673 982,604C933,552 852,451 740,302C649,181 577,72 522,-24C504,11 479,51 448,97C394,177 327,270 247,376C230,399 169,475 64,604C131,681 218,790 324,932C403,1037 468,1137 521,1231z"/>
   <glyph unicode="&#x266A;" horiz-adv-x="1024" d="M486,1363l38,0C639,1363 714,1358 751,1349C804,1336 850,1310 890,1272C920,1244 944,1205 961,1154C978,1103 987,1043 987,975l0,-103l-99,0l0,43C888,960 879,999 860,1031C841,1062 812,1086 775,1103C726,1124 672,1135 613,1135l-28,0l0,-835C585,219 574,157 553,112C532,67 495,31 443,4C391,-23 334,-37 273,-37C200,-37 143,-16 101,25C58,66 37,119 37,186C37,256 62,315 113,363C164,410 230,434 312,434C364,434 422,419 486,388z"/>
   <glyph unicode="&#x266B;" horiz-adv-x="1536" d="M534,1271l796,248l0,-1108C1330,328 1320,266 1299,224C1278,182 1242,147 1192,120C1141,93 1084,79 1021,79C948,79 890,100 847,142C804,183 782,237 782,303C782,370 808,427 859,476C910,524 977,548 1058,548C1085,548 1108,546 1129,541C1149,536 1182,524 1228,505l0,724l-595,-185l0,-836C633,127 622,65 601,20C580,-25 543,-61 491,-88C439,-115 382,-128 321,-128C248,-128 191,-107 149,-66C106,-25 85,28 85,94C85,164 110,223 161,271C212,318 278,342 360,342C412,342 470,327 534,296z"/>
   <glyph unicode="&#x132;" horiz-adv-x="1505" d="M191,0l0,1466l194,0l0,-1466M594,416l175,24C774,328 795,251 832,210C869,169 921,148 987,148C1036,148 1078,159 1113,182C1148,204 1173,234 1186,273C1199,311 1206,372 1206,456l0,1010l194,0l0,-999C1400,344 1385,249 1356,182C1326,115 1279,63 1215,28C1150,-7 1075,-25 988,-25C859,-25 761,12 693,86C624,160 591,270 594,416z"/>
   <glyph unicode="&#x133;" horiz-adv-x="909" d="M137,1259l0,207l180,0l0,-207M137,0l0,1062l180,0l0,-1062M613,1257l0,209l180,0l0,-209M385,-412l34,153C455,-268 483,-273 504,-273C541,-273 568,-261 586,-236C604,-212 613,-151 613,-54l0,1116l180,0l0,-1120C793,-189 776,-280 742,-331C699,-398 627,-431 526,-431C477,-431 430,-425 385,-412z"/>
   <glyph unicode="&#x149;" horiz-adv-x="1237" d="M228,0l0,1062l162,0l0,-151C468,1028 581,1086 728,1086C792,1086 851,1075 905,1052C958,1029 998,998 1025,961C1052,924 1070,879 1081,828C1088,795 1091,736 1091,653l0,-653l-180,0l0,646C911,719 904,774 890,811C876,847 851,876 816,898C780,919 738,930 690,930C613,930 547,906 492,857C436,808 408,716 408,580l0,-580M-23,1272l0,209l193,0l0,-165C170,1227 160,1162 139,1123C110,1069 66,1028 5,1001l-44,71C-3,1087 24,1110 42,1142C59,1173 69,1217 71,1272z"/>
   <glyph unicode="&#x2032;" horiz-adv-x="384" d="M128,947l12,274l52,245l206,0l-53,-245l-105,-274z"/>
   <glyph unicode="&#x2033;" horiz-adv-x="725" d="M134,947l12,274l52,245l206,0l-53,-245l-105,-274M417,947l12,274l52,245l206,0l-53,-245l-105,-274z"/>
   <glyph unicode="&#x2105;" horiz-adv-x="1813" d="M620,1004l123,-16C730,903 695,836 640,788C584,740 515,716 434,716C333,716 251,749 190,816C128,882 97,977 97,1101C97,1229 128,1326 190,1392C252,1458 334,1491 435,1491C516,1491 583,1471 634,1430C685,1389 717,1332 731,1257l-122,-20C598,1287 577,1325 548,1350C518,1375 482,1388 440,1388C377,1388 325,1365 286,1320C246,1275 226,1203 226,1104C226,1005 245,932 284,887C322,842 372,819 433,819C482,819 524,834 557,864C590,894 611,941 620,1004M408,-54l802,1545l146,0l-799,-1545M1021,371C1021,496 1053,592 1117,659C1181,726 1265,759 1369,759C1472,759 1555,726 1620,659C1685,592 1717,499 1717,382C1717,250 1685,151 1622,84C1558,17 1474,-17 1369,-17C1266,-17 1182,16 1118,83C1053,150 1021,246 1021,371M1150,371C1150,276 1171,205 1213,158C1254,111 1306,87 1369,87C1432,87 1484,111 1526,158C1567,205 1588,278 1588,375C1588,467 1567,537 1526,584C1484,631 1432,655 1369,655C1306,655 1254,631 1213,584C1171,537 1150,466 1150,371z"/>
   <glyph unicode="&#x2113;" horiz-adv-x="662" d="M15,422l177,235l0,455C192,1263 213,1364 254,1415C295,1466 352,1491 426,1491C490,1491 543,1469 584,1426C625,1383 646,1325 646,1252C646,1191 626,1116 586,1028C546,939 471,818 361,665l0,-415C361,191 366,154 376,140C385,125 399,118 417,118C434,118 454,124 477,135C500,146 546,176 616,225l0,-162C542,5 467,-24 391,-24C330,-24 281,-5 246,33C210,71 192,132 192,217l0,225l-79,-98M361,899C426,1012 467,1089 483,1132C498,1175 506,1214 506,1251C506,1292 497,1323 480,1346C467,1363 450,1371 430,1371C409,1371 394,1362 384,1345C369,1317 361,1244 361,1126z"/>
   <glyph unicode="&#x25A1;" horiz-adv-x="1237" d="M146,944l944,0l0,-944l-944,0M222,868l0,-792l792,0l0,792z"/>
   <glyph unicode="&#x25AA;" horiz-adv-x="726" d="M594,908l0,-463l-463,0l0,463z"/>
   <glyph unicode="&#x25AB;" horiz-adv-x="726" d="M594,908l0,-463l-463,0l0,463M518,832l-311,0l0,-311l311,0z"/>
   <glyph unicode="&#x25CF;" horiz-adv-x="1237" d="M619,1018C692,1018 764,999 835,961C906,923 961,869 1000,798C1039,727 1059,654 1059,578C1059,456 1016,352 930,266C844,180 740,137 619,137C497,137 393,180 307,266C221,352 178,456 178,578C178,655 198,728 237,799C276,869 331,923 402,961C473,999 545,1018 619,1018z"/>
   <glyph unicode="&#x25E6;" horiz-adv-x="726" d="M363,928C432,928 492,904 541,855C590,806 614,746 614,677C614,608 590,549 541,500C492,451 432,426 363,426C294,426 235,451 186,500C137,549 112,608 112,677C112,746 136,806 185,855C234,904 293,928 363,928M363,852C314,852 273,835 239,801C205,766 188,725 188,677C188,628 205,587 240,553C274,519 315,502 363,502C411,502 452,519 487,553C521,587 538,628 538,677C538,725 521,766 487,801C453,835 412,852 363,852z"/>
   <glyph unicode="&#x100;" horiz-adv-x="1366" d="M-3,0l563,1466l209,0l600,-1466l-221,0l-171,444l-613,0l-161,-444M420,602l497,0l-153,406C717,1131 683,1233 660,1312C641,1218 615,1125 581,1032M359,1578l0,148l624,0l0,-148z"/>
   <glyph unicode="&#x101;" horiz-adv-x="1139" d="M828,131C761,74 697,34 636,11C574,-12 508,-24 437,-24C320,-24 231,5 168,62C105,119 74,191 74,280C74,332 86,380 110,423C133,466 164,500 203,526C241,552 284,572 332,585C367,594 421,603 492,612C637,629 744,650 813,674C814,699 814,714 814,721C814,794 797,846 763,876C717,917 649,937 558,937C473,937 411,922 371,893C330,863 300,810 281,735l-176,24C121,834 147,895 184,942C221,988 274,1024 343,1049C412,1074 493,1086 584,1086C675,1086 748,1075 805,1054C862,1033 903,1006 930,974C957,941 975,900 986,851C992,820 995,765 995,685l0,-240C995,278 999,172 1007,128C1014,83 1029,41 1052,0l-188,0C845,37 833,81 828,131M813,533C748,506 650,484 519,465C445,454 393,442 362,429C331,416 308,396 291,371C274,345 266,316 266,285C266,237 284,197 321,165C357,133 410,117 480,117C549,117 611,132 665,163C719,193 759,234 784,287C803,328 813,388 813,467M274,1227l0,148l624,0l0,-148z"/>
   <glyph unicode="&#x108;" horiz-adv-x="1479" d="M1204,514l194,-49C1357,306 1284,184 1179,101C1073,17 944,-25 791,-25C633,-25 505,7 406,72C307,136 231,229 180,351C128,473 102,604 102,744C102,897 131,1030 190,1144C248,1257 331,1344 439,1403C546,1462 665,1491 794,1491C941,1491 1064,1454 1164,1379C1264,1304 1334,1199 1373,1064l-191,-45C1148,1126 1099,1203 1034,1252C969,1301 888,1325 790,1325C677,1325 583,1298 508,1244C432,1190 379,1118 348,1027C317,936 302,842 302,745C302,620 320,512 357,419C393,326 449,256 526,210C603,164 686,141 775,141C884,141 976,172 1051,235C1126,298 1177,391 1204,514M776,1720l-113,-170l-206,0l216,280l192,0l225,-280l-204,0z"/>
   <glyph unicode="&#x109;" horiz-adv-x="1024" d="M828,389l177,-23C986,244 936,149 857,80C777,11 679,-24 563,-24C418,-24 301,24 213,119C124,214 80,350 80,527C80,642 99,742 137,828C175,914 233,979 311,1022C388,1065 473,1086 564,1086C679,1086 774,1057 847,999C920,940 967,857 988,750l-175,-27C796,794 767,848 725,884C682,920 631,938 571,938C480,938 407,906 350,841C293,776 265,673 265,532C265,389 292,286 347,221C402,156 473,124 561,124C632,124 691,146 738,189C785,232 815,299 828,389M594,1364l-113,-170l-206,0l216,280l192,0l225,-280l-204,0z"/>
   <glyph unicode="&#x10A;" horiz-adv-x="1479" d="M1204,514l194,-49C1357,306 1284,184 1179,101C1073,17 944,-25 791,-25C633,-25 505,7 406,72C307,136 231,229 180,351C128,473 102,604 102,744C102,897 131,1030 190,1144C248,1257 331,1344 439,1403C546,1462 665,1491 794,1491C941,1491 1064,1454 1164,1379C1264,1304 1334,1199 1373,1064l-191,-45C1148,1126 1099,1203 1034,1252C969,1301 888,1325 790,1325C677,1325 583,1298 508,1244C432,1190 379,1118 348,1027C317,936 302,842 302,745C302,620 320,512 357,419C393,326 449,256 526,210C603,164 686,141 775,141C884,141 976,172 1051,235C1126,298 1177,391 1204,514M661,1594l0,224l223,0l0,-224z"/>
   <glyph unicode="&#x10B;" horiz-adv-x="1024" d="M828,389l177,-23C986,244 936,149 857,80C777,11 679,-24 563,-24C418,-24 301,24 213,119C124,214 80,350 80,527C80,642 99,742 137,828C175,914 233,979 311,1022C388,1065 473,1086 564,1086C679,1086 774,1057 847,999C920,940 967,857 988,750l-175,-27C796,794 767,848 725,884C682,920 631,938 571,938C480,938 407,906 350,841C293,776 265,673 265,532C265,389 292,286 347,221C402,156 473,124 561,124C632,124 691,146 738,189C785,232 815,299 828,389M469,1194l0,224l223,0l0,-224z"/>
   <glyph unicode="&#x112;" horiz-adv-x="1366" d="M162,0l0,1466l1060,0l0,-173l-866,0l0,-449l811,0l0,-172l-811,0l0,-499l900,0l0,-173M414,1589l0,148l624,0l0,-148z"/>
   <glyph unicode="&#x113;" horiz-adv-x="1139" d="M862,342l186,-23C1019,210 964,126 885,66C806,6 704,-24 581,-24C426,-24 303,24 212,120C121,215 75,349 75,522C75,701 121,839 213,938C305,1037 424,1086 571,1086C713,1086 829,1038 919,941C1009,844 1054,708 1054,533C1054,522 1054,506 1053,485l-792,0C268,368 301,279 360,217C419,155 493,124 582,124C648,124 704,141 751,176C798,211 835,266 862,342M271,633l593,0C856,722 833,789 796,834C739,903 664,938 573,938C490,938 421,910 365,855C308,800 277,726 271,633M253,1227l0,148l624,0l0,-148z"/>
   <glyph unicode="&#x114;" horiz-adv-x="1366" d="M162,0l0,1466l1060,0l0,-173l-866,0l0,-449l811,0l0,-172l-811,0l0,-499l900,0l0,-173M877,1826l123,0C990,1743 960,1679 909,1634C858,1589 790,1567 705,1567C620,1567 552,1589 501,1634C450,1678 419,1742 409,1826l123,0C541,1781 560,1747 588,1725C615,1702 652,1691 699,1691C753,1691 794,1702 822,1724C849,1745 868,1779 877,1826z"/>
   <glyph unicode="&#x115;" horiz-adv-x="1139" d="M862,342l186,-23C1019,210 964,126 885,66C806,6 704,-24 581,-24C426,-24 303,24 212,120C121,215 75,349 75,522C75,701 121,839 213,938C305,1037 424,1086 571,1086C713,1086 829,1038 919,941C1009,844 1054,708 1054,533C1054,522 1054,506 1053,485l-792,0C268,368 301,279 360,217C419,155 493,124 582,124C648,124 704,141 751,176C798,211 835,266 862,342M271,633l593,0C856,722 833,789 796,834C739,903 664,938 573,938C490,938 421,910 365,855C308,800 277,726 271,633M758,1464l123,0C871,1381 841,1317 790,1272C739,1227 671,1205 586,1205C501,1205 433,1227 382,1272C331,1316 300,1380 290,1464l123,0C422,1419 441,1385 469,1363C496,1340 533,1329 580,1329C634,1329 675,1340 703,1362C730,1383 749,1417 758,1464z"/>
   <glyph unicode="&#x116;" horiz-adv-x="1366" d="M162,0l0,1466l1060,0l0,-173l-866,0l0,-449l811,0l0,-172l-811,0l0,-499l900,0l0,-173M614,1556l0,224l223,0l0,-224z"/>
   <glyph unicode="&#x117;" horiz-adv-x="1139" d="M862,342l186,-23C1019,210 964,126 885,66C806,6 704,-24 581,-24C426,-24 303,24 212,120C121,215 75,349 75,522C75,701 121,839 213,938C305,1037 424,1086 571,1086C713,1086 829,1038 919,941C1009,844 1054,708 1054,533C1054,522 1054,506 1053,485l-792,0C268,368 301,279 360,217C419,155 493,124 582,124C648,124 704,141 751,176C798,211 835,266 862,342M271,633l593,0C856,722 833,789 796,834C739,903 664,938 573,938C490,938 421,910 365,855C308,800 277,726 271,633M479,1194l0,224l223,0l0,-224z"/>
   <glyph unicode="&#x11C;" horiz-adv-x="1593" d="M844,575l0,172l621,1l0,-544C1370,128 1271,71 1170,33C1069,-6 965,-25 858,-25C714,-25 583,6 466,68C348,129 259,218 199,335C139,452 109,582 109,726C109,869 139,1002 199,1126C258,1249 344,1341 456,1401C568,1461 697,1491 843,1491C949,1491 1045,1474 1131,1440C1216,1405 1283,1357 1332,1296C1381,1235 1418,1155 1443,1056l-175,-48C1246,1083 1219,1141 1186,1184C1153,1227 1107,1261 1046,1287C985,1312 918,1325 844,1325C755,1325 679,1312 614,1285C549,1258 497,1222 458,1178C418,1134 387,1086 365,1033C328,942 309,844 309,738C309,607 332,498 377,410C422,322 487,257 573,214C659,171 750,150 847,150C931,150 1013,166 1093,199C1173,231 1234,265 1275,302l0,273M870,1715l-113,-170l-206,0l216,280l192,0l225,-280l-204,0z"/>
   <glyph unicode="&#x11D;" horiz-adv-x="1139" d="M102,-88l175,-26C284,-168 305,-207 338,-232C383,-265 444,-282 521,-282C604,-282 669,-265 714,-232C759,-199 790,-152 806,-92C815,-55 820,22 819,139C740,46 642,0 525,0C379,0 266,53 186,158C106,263 66,390 66,537C66,638 84,732 121,818C158,903 211,969 281,1016C350,1063 432,1086 526,1086C651,1086 755,1035 836,934l0,128l166,0l0,-918C1002,-21 985,-138 952,-207C918,-276 865,-331 792,-371C719,-411 629,-431 522,-431C395,-431 293,-402 215,-345C137,-288 99,-203 102,-88M251,550C251,411 279,309 334,245C389,181 459,149 542,149C625,149 694,181 750,245C806,308 834,408 834,544C834,674 805,772 748,838C690,904 620,937 539,937C459,937 391,905 335,840C279,775 251,678 251,550M544,1364l-113,-170l-206,0l216,280l192,0l225,-280l-204,0z"/>
   <glyph unicode="&#x120;" horiz-adv-x="1593" d="M844,575l0,172l621,1l0,-544C1370,128 1271,71 1170,33C1069,-6 965,-25 858,-25C714,-25 583,6 466,68C348,129 259,218 199,335C139,452 109,582 109,726C109,869 139,1002 199,1126C258,1249 344,1341 456,1401C568,1461 697,1491 843,1491C949,1491 1045,1474 1131,1440C1216,1405 1283,1357 1332,1296C1381,1235 1418,1155 1443,1056l-175,-48C1246,1083 1219,1141 1186,1184C1153,1227 1107,1261 1046,1287C985,1312 918,1325 844,1325C755,1325 679,1312 614,1285C549,1258 497,1222 458,1178C418,1134 387,1086 365,1033C328,942 309,844 309,738C309,607 332,498 377,410C422,322 487,257 573,214C659,171 750,150 847,150C931,150 1013,166 1093,199C1173,231 1234,265 1275,302l0,273M755,1545l0,224l223,0l0,-224z"/>
   <glyph unicode="&#x121;" horiz-adv-x="1139" d="M102,-88l175,-26C284,-168 305,-207 338,-232C383,-265 444,-282 521,-282C604,-282 669,-265 714,-232C759,-199 790,-152 806,-92C815,-55 820,22 819,139C740,46 642,0 525,0C379,0 266,53 186,158C106,263 66,390 66,537C66,638 84,732 121,818C158,903 211,969 281,1016C350,1063 432,1086 526,1086C651,1086 755,1035 836,934l0,128l166,0l0,-918C1002,-21 985,-138 952,-207C918,-276 865,-331 792,-371C719,-411 629,-431 522,-431C395,-431 293,-402 215,-345C137,-288 99,-203 102,-88M251,550C251,411 279,309 334,245C389,181 459,149 542,149C625,149 694,181 750,245C806,308 834,408 834,544C834,674 805,772 748,838C690,904 620,937 539,937C459,937 391,905 335,840C279,775 251,678 251,550M457,1194l0,224l223,0l0,-224z"/>
   <glyph unicode="&#x122;" horiz-adv-x="1593" d="M844,575l0,172l621,1l0,-544C1370,128 1271,71 1170,33C1069,-6 965,-25 858,-25C714,-25 583,6 466,68C348,129 259,218 199,335C139,452 109,582 109,726C109,869 139,1002 199,1126C258,1249 344,1341 456,1401C568,1461 697,1491 843,1491C949,1491 1045,1474 1131,1440C1216,1405 1283,1357 1332,1296C1381,1235 1418,1155 1443,1056l-175,-48C1246,1083 1219,1141 1186,1184C1153,1227 1107,1261 1046,1287C985,1312 918,1325 844,1325C755,1325 679,1312 614,1285C549,1258 497,1222 458,1178C418,1134 387,1086 365,1033C328,942 309,844 309,738C309,607 332,498 377,410C422,322 487,257 573,214C659,171 750,150 847,150C931,150 1013,166 1093,199C1173,231 1234,265 1275,302l0,273M748,-154l52,177l134,0l-33,-107C958,-91 1000,-108 1029,-136C1058,-165 1072,-196 1072,-231C1072,-281 1048,-325 1000,-363C952,-402 880,-421 783,-421C728,-421 680,-417 639,-409l11,117C693,-295 724,-296 744,-296C807,-296 851,-287 876,-270C895,-257 905,-240 905,-221C905,-209 901,-198 894,-189C886,-180 872,-172 851,-165C830,-158 796,-155 748,-154z"/>
   <glyph unicode="&#x123;" horiz-adv-x="1139" d="M632,1345l0,-175l-209,0l0,117C423,1362 435,1422 460,1469C485,1516 528,1551 591,1576l54,-83C583,1467 547,1418 536,1345M102,-88l175,-26C288,-226 370,-282 521,-282C602,-282 665,-266 712,-234C758,-202 787,-162 800,-114C813,-66 819,18 819,139C741,46 644,0 528,0C381,0 268,53 187,158C106,263 66,388 66,535C66,696 106,828 187,931C268,1034 381,1086 528,1086C652,1086 755,1035 836,934l0,128l166,0l0,-918C1002,-10 987,-123 956,-196C925,-269 872,-326 796,-368C719,-410 629,-431 526,-431C383,-431 276,-400 205,-337C134,-275 99,-192 102,-88M251,550C251,408 279,306 336,243C393,180 461,149 542,149C628,149 698,182 753,248C807,313 834,413 834,548C834,661 808,755 757,828C705,901 632,937 539,937C452,937 383,903 330,834C277,765 251,670 251,550z"/>
   <glyph unicode="&#x124;" horiz-adv-x="1479" d="M164,0l0,1466l194,0l0,-602l762,0l0,602l194,0l0,-1466l-194,0l0,691l-762,0l0,-691M774,1726l-113,-170l-206,0l216,280l192,0l225,-280l-204,0z"/>
   <glyph unicode="&#x125;" horiz-adv-x="1139" d="M135,0l0,1466l180,0l0,-526C399,1037 505,1086 633,1086C712,1086 780,1071 838,1040C896,1009 938,966 963,911C988,856 1000,777 1000,673l0,-673l-180,0l0,673C820,763 801,829 762,870C723,911 667,931 596,931C543,931 493,917 446,890C399,862 365,824 345,777C325,730 315,664 315,581l0,-581M644,1726l-113,-170l-206,0l216,280l192,0l225,-280l-204,0z"/>
   <glyph unicode="&#x126;" horiz-adv-x="1479" d="M164,1099l-133,0l0,148l133,0l0,219l194,0l0,-219l762,0l0,219l194,0l0,-219l133,0l0,-148l-133,0l0,-1099l-194,0l0,691l-762,0l0,-691l-194,0M358,1099l0,-235l762,0l0,235z"/>
   <glyph unicode="&#x127;" horiz-adv-x="1139" d="M135,1199l-129,0l0,134l129,0l0,133l180,0l0,-133l367,0l0,-134l-367,0l0,-259C396,1037 503,1086 635,1086C726,1086 810,1061 886,1010C962,959 1000,847 1000,673l0,-673l-180,0l0,673C820,845 745,931 595,931C513,931 446,904 394,851C341,797 315,707 315,581l0,-581l-180,0z"/>
   <glyph unicode="&#x128;" horiz-adv-x="569" d="M191,0l0,1466l194,0l0,-1466M-63,1581C-64,1650 -45,1706 -6,1747C32,1788 81,1809 140,1809C181,1809 238,1791 309,1755C348,1735 380,1725 403,1725C424,1725 441,1731 452,1743C463,1754 471,1777 476,1812l130,0C604,1736 585,1679 549,1641C512,1603 466,1584 410,1584C368,1584 313,1603 244,1640C199,1664 167,1676 146,1676C123,1676 105,1668 91,1652C76,1636 69,1612 70,1581z"/>
   <glyph unicode="&#x129;" horiz-adv-x="569" d="M198,0l0,1062l180,0l0,-1062M-45,1219C-46,1288 -27,1344 12,1385C50,1426 99,1447 158,1447C199,1447 256,1429 327,1393C366,1373 398,1363 421,1363C442,1363 459,1369 470,1381C481,1392 489,1415 494,1450l130,0C622,1374 603,1317 567,1279C530,1241 484,1222 428,1222C386,1222 331,1241 262,1278C217,1302 185,1314 164,1314C141,1314 123,1306 109,1290C94,1274 87,1250 88,1219z"/>
   <glyph unicode="&#x12A;" horiz-adv-x="569" d="M191,0l0,1466l194,0l0,-1466M-28,1563l0,148l624,0l0,-148z"/>
   <glyph unicode="&#x12B;" horiz-adv-x="569" d="M198,0l0,1062l180,0l0,-1062M-23,1227l0,148l624,0l0,-148z"/>
   <glyph unicode="&#x12C;" horiz-adv-x="569" d="M191,0l0,1466l194,0l0,-1466M467,1800l123,0C580,1717 550,1653 499,1608C448,1563 380,1541 295,1541C210,1541 142,1563 91,1608C40,1652 9,1716 -1,1800l123,0C131,1755 150,1721 178,1699C205,1676 242,1665 289,1665C343,1665 384,1676 412,1698C439,1719 458,1753 467,1800z"/>
   <glyph unicode="&#x12D;" horiz-adv-x="569" d="M198,0l0,1062l180,0l0,-1062M462,1464l123,0C575,1381 545,1317 494,1272C443,1227 375,1205 290,1205C205,1205 137,1227 86,1272C35,1316 4,1380 -6,1464l123,0C126,1419 145,1385 173,1363C200,1340 237,1329 284,1329C338,1329 379,1340 407,1362C434,1383 453,1417 462,1464z"/>
   <glyph unicode="&#x12E;" horiz-adv-x="569" d="M318,0C299,-52 289,-99 289,-140C289,-185 303,-221 330,-249C357,-278 392,-292 433,-292C484,-292 540,-277 601,-246l0,-119C522,-406 447,-426 378,-426C317,-426 266,-406 225,-367C184,-328 163,-274 163,-205C163,-152 175,-83 198,1l0,1465l194,0l0,-1466z"/>
   <glyph unicode="&#x12F;" horiz-adv-x="455" d="M136,1259l0,207l180,0l0,-207M257,0C238,-52 228,-99 228,-140C228,-185 242,-221 269,-249C296,-278 331,-292 372,-292C423,-292 479,-277 540,-246l0,-119C462,-405 388,-425 319,-425C252,-425 199,-405 160,-364C121,-323 102,-270 102,-205C102,-162 113,-93 136,0l0,1062l180,0l0,-1062z"/>
   <glyph unicode="&#x134;" horiz-adv-x="1024" d="M59,416l175,24C239,328 260,251 297,210C334,169 386,148 452,148C501,148 543,159 578,182C613,204 638,234 651,273C664,311 671,372 671,456l0,1010l194,0l0,-999C865,344 850,249 821,182C791,115 744,63 680,28C615,-7 540,-25 453,-25C324,-25 226,12 158,86C89,160 56,270 59,416M794,1726l-113,-170l-206,0l216,280l192,0l225,-280l-204,0z"/>
   <glyph unicode="&#x135;" horiz-adv-x="455" d="M230,1364l-113,-170l-205,0l216,280l192,0l224,-280l-203,0M-94,-412l34,153C-25,-268 3,-273 25,-273C67,-273 96,-259 111,-231C126,-204 134,-145 134,-54l0,1116l180,0l0,-1120C314,-189 295,-284 256,-343C217,-402 147,-431 47,-431C-2,-431 -49,-425 -94,-412z"/>
   <glyph unicode="&#x136;" horiz-adv-x="1366" d="M150,0l0,1466l194,0l0,-727l728,727l263,0l-615,-594l642,-872l-256,0l-522,742l-240,-234l0,-508M673,-50C696,-47 718,-46 739,-46C830,-46 897,-64 938,-101C979,-138 1000,-180 1000,-228C1000,-279 977,-324 930,-363C883,-402 808,-421 707,-421C665,-421 618,-417 567,-409l11,117C607,-295 636,-296 665,-296C776,-296 832,-271 832,-220C832,-175 790,-153 705,-153C696,-153 685,-154 673,-155z"/>
   <glyph unicode="&#x137;" horiz-adv-x="1024" d="M136,0l0,1466l180,0l0,-836l426,432l233,0l-406,-394l447,-668l-222,0l-351,543l-127,-122l0,-421M502,-50C525,-47 547,-46 568,-46C659,-46 726,-64 767,-101C808,-138 829,-180 829,-228C829,-279 806,-324 759,-363C712,-402 637,-421 536,-421C494,-421 447,-417 396,-409l11,117C436,-295 465,-296 494,-296C605,-296 661,-271 661,-220C661,-175 619,-153 534,-153C525,-153 514,-154 502,-155z"/>
   <glyph unicode="&#x138;" horiz-adv-x="1024" d="M134,0l0,1062l180,0l0,-432l426,432l233,0l-406,-394l447,-668l-222,0l-351,543l-127,-122l0,-421z"/>
   <glyph unicode="&#x13B;" horiz-adv-x="1139" d="M150,0l0,1466l194,0l0,-1293l722,0l0,-173M553,-50C576,-47 598,-46 619,-46C710,-46 777,-64 818,-101C859,-138 880,-180 880,-228C880,-279 857,-324 810,-363C763,-402 688,-421 587,-421C545,-421 498,-417 447,-409l11,117C487,-295 516,-296 545,-296C656,-296 712,-271 712,-220C712,-175 670,-153 585,-153C576,-153 565,-154 553,-155z"/>
   <glyph unicode="&#x13C;" horiz-adv-x="455" d="M131,0l0,1466l180,0l0,-1466M103,-50C126,-47 148,-46 169,-46C260,-46 327,-64 368,-101C409,-138 430,-180 430,-228C430,-279 407,-324 360,-363C313,-402 238,-421 137,-421C95,-421 48,-417 -3,-409l11,117C37,-295 66,-296 95,-296C206,-296 262,-271 262,-220C262,-175 220,-153 135,-153C126,-153 115,-154 103,-155z"/>
   <glyph unicode="&#x145;" horiz-adv-x="1479" d="M156,0l0,1466l199,0l770,-1151l0,1151l186,0l0,-1466l-199,0l-770,1152l0,-1152M699,-50C722,-47 744,-46 765,-46C856,-46 923,-64 964,-101C1005,-138 1026,-180 1026,-228C1026,-279 1003,-324 956,-363C909,-402 834,-421 733,-421C691,-421 644,-417 593,-409l11,117C633,-295 662,-296 691,-296C802,-296 858,-271 858,-220C858,-175 816,-153 731,-153C722,-153 711,-154 699,-155z"/>
   <glyph unicode="&#x146;" horiz-adv-x="1139" d="M135,0l0,1062l162,0l0,-151C375,1028 488,1086 635,1086C699,1086 758,1075 812,1052C865,1029 905,998 932,961C959,924 977,879 988,828C995,795 998,736 998,653l0,-653l-180,0l0,646C818,719 811,774 797,811C783,847 758,876 723,898C687,919 645,930 597,930C520,930 454,906 399,857C343,808 315,716 315,580l0,-580M463,-50C486,-47 508,-46 529,-46C620,-46 687,-64 728,-101C769,-138 790,-180 790,-228C790,-279 767,-324 720,-363C673,-402 598,-421 497,-421C455,-421 408,-417 357,-409l11,117C397,-295 426,-296 455,-296C566,-296 622,-271 622,-220C622,-175 580,-153 495,-153C486,-153 475,-154 463,-155z"/>
   <glyph unicode="&#x14A;" horiz-adv-x="1481" d="M165,1466l196,0l0,-182C438,1372 514,1429 589,1454C664,1479 744,1491 827,1491C948,1491 1046,1464 1123,1410C1199,1356 1260,1278 1305,1177C1350,1075 1373,934 1373,754C1373,491 1330,296 1243,168C1156,39 1040,-25 893,-25C808,-25 726,-1 645,47l87,153C796,165 850,148 893,148C944,148 992,170 1035,213C1078,256 1113,321 1138,409C1163,496 1176,610 1176,749C1176,1135 1041,1328 771,1328C682,1328 605,1307 538,1266C471,1224 424,1171 399,1107C374,1042 361,940 361,801l0,-801l-196,0z"/>
   <glyph unicode="&#x14B;" horiz-adv-x="1139" d="M1002,653l0,-711C1002,-189 983,-284 944,-343C905,-402 835,-431 735,-431C686,-431 639,-425 594,-412l34,153C663,-268 692,-273 713,-273C756,-273 785,-258 800,-229C815,-200 822,-141 822,-54l0,700C822,745 805,817 770,862C735,907 678,930 599,930C521,930 455,905 401,855C346,805 319,713 319,580l0,-580l-180,0l0,1062l162,0l0,-151C379,1028 492,1086 639,1086C726,1086 798,1067 857,1030C916,993 955,947 974,892C993,837 1002,757 1002,653z"/>
   <glyph unicode="&#x14C;" horiz-adv-x="1593" d="M99,714C99,957 164,1148 295,1286C426,1423 594,1492 801,1492C936,1492 1058,1460 1167,1395C1276,1330 1359,1240 1416,1125C1473,1009 1501,878 1501,731C1501,582 1471,449 1411,332C1351,215 1266,126 1156,66C1046,5 927,-25 800,-25C662,-25 539,8 430,75C321,142 239,233 183,348C127,463 99,585 99,714M299,711C299,534 347,395 442,294C537,192 656,141 799,141C945,141 1065,192 1160,295C1254,398 1301,543 1301,732C1301,851 1281,956 1241,1045C1200,1134 1141,1203 1064,1252C986,1301 899,1325 802,1325C665,1325 547,1278 448,1184C349,1089 299,932 299,711M504,1599l0,148l624,0l0,-148z"/>
   <glyph unicode="&#x14D;" horiz-adv-x="1139" d="M68,531C68,728 123,873 232,968C323,1047 435,1086 566,1086C712,1086 831,1038 924,943C1017,847 1063,715 1063,546C1063,409 1043,302 1002,224C961,145 901,84 823,41C744,-2 659,-24 566,-24C417,-24 297,24 206,119C114,214 68,352 68,531M253,531C253,395 283,293 342,226C401,158 476,124 566,124C655,124 730,158 789,226C848,294 878,398 878,537C878,668 848,768 789,836C729,903 655,937 566,937C476,937 401,903 342,836C283,769 253,667 253,531M264,1227l0,148l624,0l0,-148z"/>
   <glyph unicode="&#x14E;" horiz-adv-x="1593" d="M99,714C99,957 164,1148 295,1286C426,1423 594,1492 801,1492C936,1492 1058,1460 1167,1395C1276,1330 1359,1240 1416,1125C1473,1009 1501,878 1501,731C1501,582 1471,449 1411,332C1351,215 1266,126 1156,66C1046,5 927,-25 800,-25C662,-25 539,8 430,75C321,142 239,233 183,348C127,463 99,585 99,714M299,711C299,534 347,395 442,294C537,192 656,141 799,141C945,141 1065,192 1160,295C1254,398 1301,543 1301,732C1301,851 1281,956 1241,1045C1200,1134 1141,1203 1064,1252C986,1301 899,1325 802,1325C665,1325 547,1278 448,1184C349,1089 299,932 299,711M989,1826l123,0C1102,1743 1072,1679 1021,1634C970,1589 902,1567 817,1567C732,1567 664,1589 613,1634C562,1678 531,1742 521,1826l123,0C653,1781 672,1747 700,1725C727,1702 764,1691 811,1691C865,1691 906,1702 934,1724C961,1745 980,1779 989,1826z"/>
   <glyph unicode="&#x14F;" horiz-adv-x="1139" d="M68,531C68,728 123,873 232,968C323,1047 435,1086 566,1086C712,1086 831,1038 924,943C1017,847 1063,715 1063,546C1063,409 1043,302 1002,224C961,145 901,84 823,41C744,-2 659,-24 566,-24C417,-24 297,24 206,119C114,214 68,352 68,531M253,531C253,395 283,293 342,226C401,158 476,124 566,124C655,124 730,158 789,226C848,294 878,398 878,537C878,668 848,768 789,836C729,903 655,937 566,937C476,937 401,903 342,836C283,769 253,667 253,531M749,1464l123,0C862,1381 832,1317 781,1272C730,1227 662,1205 577,1205C492,1205 424,1227 373,1272C322,1316 291,1380 281,1464l123,0C413,1419 432,1385 460,1363C487,1340 524,1329 571,1329C625,1329 666,1340 694,1362C721,1383 740,1417 749,1464z"/>
   <glyph unicode="&#x156;" horiz-adv-x="1479" d="M161,0l0,1466l650,0C942,1466 1041,1453 1109,1427C1177,1400 1231,1354 1272,1287C1313,1220 1333,1147 1333,1066C1333,962 1299,874 1232,803C1165,732 1061,686 920,667C971,642 1010,618 1037,594C1094,542 1147,477 1198,399l255,-399l-244,0l-194,305C958,393 912,460 875,507C838,554 806,586 777,605C748,624 718,637 688,644C666,649 630,651 580,651l-225,0l0,-651M355,819l417,0C861,819 930,828 980,847C1030,865 1068,894 1094,935C1120,975 1133,1019 1133,1066C1133,1135 1108,1192 1058,1237C1007,1282 928,1304 819,1304l-464,0M699,-50C722,-47 744,-46 765,-46C856,-46 923,-64 964,-101C1005,-138 1026,-180 1026,-228C1026,-279 1003,-324 956,-363C909,-402 834,-421 733,-421C691,-421 644,-417 593,-409l11,117C633,-295 662,-296 691,-296C802,-296 858,-271 858,-220C858,-175 816,-153 731,-153C722,-153 711,-154 699,-155z"/>
   <glyph unicode="&#x157;" horiz-adv-x="682" d="M133,0l0,1062l162,0l0,-161C336,976 375,1026 410,1050C445,1074 483,1086 525,1086C586,1086 647,1067 710,1028l-62,-167C604,887 560,900 516,900C477,900 441,888 410,865C379,841 356,808 343,766C323,702 313,632 313,556l0,-556M250,-50C273,-47 295,-46 316,-46C407,-46 474,-64 515,-101C556,-138 577,-180 577,-228C577,-279 554,-324 507,-363C460,-402 385,-421 284,-421C242,-421 195,-417 144,-409l11,117C184,-295 213,-296 242,-296C353,-296 409,-271 409,-220C409,-175 367,-153 282,-153C273,-153 262,-154 250,-155z"/>
   <glyph unicode="&#x15C;" horiz-adv-x="1366" d="M92,471l183,16C284,414 304,354 336,307C367,260 416,222 483,193C550,164 625,149 708,149C782,149 847,160 904,182C961,204 1003,234 1031,273C1058,311 1072,353 1072,398C1072,444 1059,484 1032,519C1005,553 961,582 900,605C861,620 774,644 639,677C504,709 410,739 356,768C286,805 234,850 200,905C165,959 148,1020 148,1087C148,1161 169,1230 211,1295C253,1359 314,1408 395,1441C476,1474 565,1491 664,1491C773,1491 869,1474 952,1439C1035,1404 1098,1352 1143,1284C1188,1216 1212,1139 1215,1053l-186,-14C1019,1132 985,1202 928,1249C870,1296 785,1320 672,1320C555,1320 469,1299 416,1256C362,1213 335,1161 335,1100C335,1047 354,1004 392,970C429,936 527,901 685,866C842,830 950,799 1009,772C1094,733 1157,683 1198,623C1239,562 1259,493 1259,414C1259,336 1237,263 1192,194C1147,125 1083,71 1000,33C916,-6 822,-25 717,-25C584,-25 473,-6 384,33C294,72 224,130 173,208C122,285 95,373 92,471M676,1720l-113,-170l-206,0l216,280l192,0l225,-280l-204,0z"/>
   <glyph unicode="&#x15D;" horiz-adv-x="1024" d="M63,317l178,28C251,274 279,219 325,181C370,143 434,124 516,124C599,124 660,141 700,175C740,208 760,248 760,293C760,334 742,366 707,389C682,405 621,425 523,450C391,483 300,512 249,537C198,561 159,595 133,638C106,681 93,728 93,780C93,827 104,871 126,912C147,952 177,985 214,1012C242,1033 280,1050 329,1065C377,1079 429,1086 484,1086C567,1086 641,1074 704,1050C767,1026 813,994 843,953C873,912 894,857 905,788l-176,-24C721,819 698,861 660,892C621,923 567,938 497,938C414,938 355,924 320,897C285,870 267,838 267,801C267,778 274,757 289,738C304,719 327,703 358,690C376,683 429,668 517,644C644,610 733,582 784,561C834,539 873,507 902,466C931,425 945,373 945,312C945,252 928,196 893,143C858,90 807,49 741,20C675,-9 600,-24 517,-24C379,-24 274,5 202,62C129,119 83,204 63,317M534,1364l-113,-170l-206,0l216,280l192,0l225,-280l-204,0z"/>
   <glyph unicode="&#x166;" horiz-adv-x="1251" d="M531,629l-330,0l0,132l330,0l0,532l-483,0l0,173l1162,0l0,-173l-485,0l0,-532l328,0l0,-132l-328,0l0,-629l-194,0z"/>
   <glyph unicode="&#x167;" horiz-adv-x="569" d="M145,514l-133,0l0,132l133,0l0,276l-132,0l0,140l132,0l0,263l180,108l0,-371l180,0l0,-140l-180,0l0,-276l172,0l0,-132l-172,0l0,-213C325,244 331,206 344,185C356,164 383,154 426,154C447,154 474,156 505,161l26,-159C482,-9 438,-14 397,-14C326,-14 272,-2 234,22C195,46 171,78 161,117C150,156 145,220 145,311z"/>
   <glyph unicode="&#x168;" horiz-adv-x="1479" d="M1120,1466l194,0l0,-847C1314,472 1297,355 1264,268C1231,181 1171,111 1084,57C997,2 882,-25 741,-25C604,-25 491,-1 404,46C317,93 254,162 217,252C180,341 161,464 161,619l0,847l194,0l0,-846C355,493 367,399 391,339C414,278 455,232 513,199C570,166 641,150 724,150C867,150 968,182 1029,247C1090,312 1120,436 1120,620M427,1575C426,1644 445,1700 484,1741C522,1782 571,1803 630,1803C671,1803 728,1785 799,1749C838,1729 870,1719 893,1719C914,1719 931,1725 942,1737C953,1748 961,1771 966,1806l130,0C1094,1730 1075,1673 1039,1635C1002,1597 956,1578 900,1578C858,1578 803,1597 734,1634C689,1658 657,1670 636,1670C613,1670 595,1662 581,1646C566,1630 559,1606 560,1575z"/>
   <glyph unicode="&#x169;" horiz-adv-x="1139" d="M831,0l0,156C748,36 636,-24 494,-24C431,-24 373,-12 319,12C264,36 224,66 198,103C171,139 153,183 142,236C135,271 131,327 131,404l0,658l180,0l0,-589C311,379 315,316 322,283C333,236 357,199 394,172C431,145 476,131 530,131C584,131 635,145 682,173C729,200 763,238 783,286C802,333 812,402 812,493l0,569l180,0l0,-1062M243,1219C242,1288 261,1344 300,1385C338,1426 387,1447 446,1447C487,1447 544,1429 615,1393C654,1373 686,1363 709,1363C730,1363 747,1369 758,1381C769,1392 777,1415 782,1450l130,0C910,1374 891,1317 855,1279C818,1241 772,1222 716,1222C674,1222 619,1241 550,1278C505,1302 473,1314 452,1314C429,1314 411,1306 397,1290C382,1274 375,1250 376,1219z"/>
   <glyph unicode="&#x16A;" horiz-adv-x="1479" d="M1120,1466l194,0l0,-847C1314,472 1297,355 1264,268C1231,181 1171,111 1084,57C997,2 882,-25 741,-25C604,-25 491,-1 404,46C317,93 254,162 217,252C180,341 161,464 161,619l0,847l194,0l0,-846C355,493 367,399 391,339C414,278 455,232 513,199C570,166 641,150 724,150C867,150 968,182 1029,247C1090,312 1120,436 1120,620M449,1583l0,148l624,0l0,-148z"/>
   <glyph unicode="&#x16B;" horiz-adv-x="1139" d="M831,0l0,156C748,36 636,-24 494,-24C431,-24 373,-12 319,12C264,36 224,66 198,103C171,139 153,183 142,236C135,271 131,327 131,404l0,658l180,0l0,-589C311,379 315,316 322,283C333,236 357,199 394,172C431,145 476,131 530,131C584,131 635,145 682,173C729,200 763,238 783,286C802,333 812,402 812,493l0,569l180,0l0,-1062M265,1227l0,148l624,0l0,-148z"/>
   <glyph unicode="&#x16C;" horiz-adv-x="1479" d="M1120,1466l194,0l0,-847C1314,472 1297,355 1264,268C1231,181 1171,111 1084,57C997,2 882,-25 741,-25C604,-25 491,-1 404,46C317,93 254,162 217,252C180,341 161,464 161,619l0,847l194,0l0,-846C355,493 367,399 391,339C414,278 455,232 513,199C570,166 641,150 724,150C867,150 968,182 1029,247C1090,312 1120,436 1120,620M914,1820l123,0C1027,1737 997,1673 946,1628C895,1583 827,1561 742,1561C657,1561 589,1583 538,1628C487,1672 456,1736 446,1820l123,0C578,1775 597,1741 625,1719C652,1696 689,1685 736,1685C790,1685 831,1696 859,1718C886,1739 905,1773 914,1820z"/>
   <glyph unicode="&#x16D;" horiz-adv-x="1139" d="M831,0l0,156C748,36 636,-24 494,-24C431,-24 373,-12 319,12C264,36 224,66 198,103C171,139 153,183 142,236C135,271 131,327 131,404l0,658l180,0l0,-589C311,379 315,316 322,283C333,236 357,199 394,172C431,145 476,131 530,131C584,131 635,145 682,173C729,200 763,238 783,286C802,333 812,402 812,493l0,569l180,0l0,-1062M750,1464l123,0C863,1381 833,1317 782,1272C731,1227 663,1205 578,1205C493,1205 425,1227 374,1272C323,1316 292,1380 282,1464l123,0C414,1419 433,1385 461,1363C488,1340 525,1329 572,1329C626,1329 667,1340 695,1362C722,1383 741,1417 750,1464z"/>
   <glyph unicode="&#x172;" horiz-adv-x="1479" d="M786,-24C773,-71 766,-109 766,-137C766,-184 780,-222 807,-250C834,-278 869,-292 910,-292C961,-292 1017,-277 1078,-246l0,-119C999,-406 926,-426 859,-426C794,-426 741,-406 701,-366C660,-326 640,-272 640,-205C640,-158 649,-97 668,-22C489,-7 359,48 280,142C201,236 161,395 161,619l0,847l194,0l0,-846C355,493 367,398 392,337C416,275 458,228 517,197C576,166 644,150 721,150C867,150 970,183 1030,248C1090,313 1120,437 1120,620l0,846l194,0l0,-847C1314,490 1301,383 1275,297C1249,211 1196,138 1116,78C1036,18 926,-16 786,-24z"/>
   <glyph unicode="&#x173;" horiz-adv-x="1139" d="M952,0C933,-52 923,-99 923,-140C923,-185 937,-221 964,-249C991,-278 1026,-292 1067,-292C1118,-292 1174,-277 1235,-246l0,-119C1157,-405 1083,-425 1014,-425C949,-425 896,-405 857,-365C817,-325 797,-272 797,-205C797,-160 806,-103 823,-33l8,33l0,156C748,36 636,-24 493,-24C409,-24 338,-5 279,32C220,69 180,116 161,172C141,227 131,305 131,404l0,658l180,0l0,-589C311,380 315,314 324,275C333,235 355,201 392,173C429,145 475,131 530,131C591,131 645,147 693,179C740,211 772,251 788,299C804,347 812,412 812,493l0,569l180,0l0,-1062z"/>
   <glyph unicode="&#x174;" horiz-adv-x="1933" d="M414,0l-389,1466l199,0l223,-961C471,404 492,304 509,205C546,362 568,452 575,476l279,990l234,0l210,-742C1351,540 1389,367 1412,205C1431,298 1455,404 1485,524l230,942l195,0l-402,-1466l-187,0l-309,1117C986,1210 971,1268 966,1289C951,1222 936,1164 923,1117l-311,-1117M964,1726l-113,-170l-206,0l216,280l192,0l225,-280l-204,0z"/>
   <glyph unicode="&#x175;" horiz-adv-x="1479" d="M331,0l-325,1062l186,0l169,-613l63,-228C427,232 445,305 479,440l169,622l185,0l159,-616l53,-203l61,205l182,614l175,0l-332,-1062l-187,0l-169,636l-41,181l-215,-817M754,1364l-113,-170l-206,0l216,280l192,0l225,-280l-204,0z"/>
   <glyph unicode="&#x176;" horiz-adv-x="1366" d="M571,0l0,621l-565,845l236,0l289,-442C584,941 634,859 680,776C724,853 777,939 840,1035l284,431l226,0l-585,-845l0,-621M709,1726l-113,-170l-206,0l216,280l192,0l225,-280l-204,0z"/>
   <glyph unicode="&#x177;" horiz-adv-x="1024" d="M127,-409l-20,169C146,-251 181,-256 210,-256C250,-256 282,-249 306,-236C330,-223 350,-204 365,-180C376,-162 395,-117 420,-46C423,-36 429,-21 436,-2l-403,1064l194,0l221,-615C477,369 502,287 525,201C546,284 570,364 599,443l227,619l180,0l-404,-1080C559,-135 525,-215 501,-259C469,-318 432,-362 391,-389C350,-417 300,-431 243,-431C208,-431 170,-424 127,-409M559,1364l-113,-170l-206,0l216,280l192,0l225,-280l-204,0z"/>
   <glyph unicode="&#x17F;" horiz-adv-x="455" d="M137,0l0,1175C137,1252 146,1311 164,1354C182,1396 213,1429 258,1454C303,1479 360,1491 431,1491C484,1491 539,1485 598,1473l-26,-157C536,1323 501,1326 466,1326C406,1326 366,1313 347,1287C327,1260 317,1218 317,1160l0,-1160z"/>
   <glyph unicode="&#x1FA;" horiz-adv-x="1366" d="M-3,0l563,1466l209,0l600,-1466l-221,0l-171,444l-613,0l-161,-444M420,602l497,0l-153,406C717,1131 683,1233 660,1312C641,1218 615,1125 581,1032M481,1601C481,1650 499,1692 535,1727C570,1762 612,1780 661,1780C710,1780 753,1762 788,1727C823,1691 841,1648 841,1597C841,1546 823,1502 788,1467C753,1432 711,1414 662,1414C612,1414 569,1432 534,1468C499,1503 481,1548 481,1601M557,1600C557,1569 568,1542 589,1521C610,1500 634,1489 663,1489C692,1489 717,1500 738,1521C759,1542 769,1568 769,1598C769,1628 759,1654 738,1675C717,1696 692,1707 663,1707C634,1707 610,1697 589,1676C568,1655 557,1629 557,1600M561,1780l133,280l236,0l-220,-280z"/>
   <glyph unicode="&#x1FB;" horiz-adv-x="1139" d="M828,131C761,74 697,34 636,11C574,-12 508,-24 437,-24C320,-24 231,5 168,62C105,119 74,191 74,280C74,332 86,380 110,423C133,466 164,500 203,526C241,552 284,572 332,585C367,594 421,603 492,612C637,629 744,650 813,674C814,699 814,714 814,721C814,794 797,846 763,876C717,917 649,937 558,937C473,937 411,922 371,893C330,863 300,810 281,735l-176,24C121,834 147,895 184,942C221,988 274,1024 343,1049C412,1074 493,1086 584,1086C675,1086 748,1075 805,1054C862,1033 903,1006 930,974C957,941 975,900 986,851C992,820 995,765 995,685l0,-240C995,278 999,172 1007,128C1014,83 1029,41 1052,0l-188,0C845,37 833,81 828,131M813,533C748,506 650,484 519,465C445,454 393,442 362,429C331,416 308,396 291,371C274,345 266,316 266,285C266,237 284,197 321,165C357,133 410,117 480,117C549,117 611,132 665,163C719,193 759,234 784,287C803,328 813,388 813,467M383,1338C383,1387 401,1429 437,1464C472,1499 514,1517 563,1517C612,1517 655,1499 690,1464C725,1428 743,1385 743,1334C743,1283 725,1239 690,1204C655,1169 613,1151 564,1151C514,1151 471,1169 436,1205C401,1240 383,1285 383,1338M459,1337C459,1306 470,1279 491,1258C512,1237 536,1226 565,1226C594,1226 619,1237 640,1258C661,1279 671,1305 671,1335C671,1365 661,1391 640,1412C619,1433 594,1444 565,1444C536,1444 512,1434 491,1413C470,1392 459,1366 459,1337M493,1644l133,280l236,0l-220,-280z"/>
   <glyph unicode="&#x1FC;" horiz-adv-x="2048" d="M1,0l705,1466l1203,0l0,-173l-737,0l0,-451l685,0l0,-172l-685,0l0,-497l764,0l0,-173l-959,0l0,423l-566,0l-200,-423M493,595l484,0l0,698l-145,0M881,1556l133,280l236,0l-220,-280z"/>
   <glyph unicode="&#x1FD;" horiz-adv-x="1821" d="M1734,325C1701,214 1644,128 1564,67C1484,6 1385,-24 1266,-24C1181,-24 1107,-8 1044,24C980,56 922,106 871,174C802,106 732,56 661,24C590,-8 513,-24 431,-24C316,-24 227,6 164,65C100,124 68,195 68,280C68,337 85,391 118,442C151,492 197,530 256,556C315,582 409,603 538,620C638,633 722,650 790,669C791,686 791,699 791,710C791,794 774,853 739,887C704,920 642,937 555,937C497,937 448,930 408,916C368,902 339,882 320,857C301,831 285,790 272,733l-175,21C116,832 143,894 178,940C213,985 263,1021 328,1047C393,1073 470,1086 557,1086C668,1086 758,1069 826,1036C865,1017 898,986 925,943C968,990 1016,1025 1070,1050C1124,1074 1189,1086 1266,1086C1374,1086 1463,1060 1534,1008C1605,955 1656,886 1689,800C1722,714 1738,629 1738,546C1738,533 1737,513 1736,485l-767,0C970,389 982,319 1005,276C1027,233 1063,197 1112,168C1161,139 1214,124 1273,124C1342,124 1400,144 1448,183C1495,222 1528,278 1546,349M969,633l584,0C1544,738 1514,815 1463,864C1412,913 1346,937 1265,937C1181,937 1112,910 1059,857C1005,804 975,729 969,633M793,533C740,510 633,486 471,460C398,449 347,432 318,409C279,378 259,337 259,286C259,239 277,199 312,167C347,134 399,118 466,118C543,118 610,137 667,175C724,213 761,260 778,317C788,352 793,424 793,533M822,1194l133,280l236,0l-220,-280z"/>
   <glyph unicode="&#x1FE;" horiz-adv-x="1593" d="M1250,1332l168,188l99,-84l-176,-198C1398,1153 1437,1078 1457,1014C1484,930 1497,836 1497,732C1497,582 1467,448 1406,331C1345,214 1260,125 1151,65C1041,5 924,-25 801,-25C709,-25 626,-12 551,14C494,34 427,72 350,129l-168,-188l-99,84l176,197C194,321 150,406 128,477C106,547 95,631 95,730C95,881 125,1015 185,1133C245,1250 329,1339 438,1400C546,1461 666,1491 799,1491C888,1491 967,1479 1034,1456C1101,1432 1173,1391 1250,1332M1130,1197C1067,1246 1013,1280 966,1298C919,1316 863,1325 800,1325C654,1325 533,1276 438,1177C343,1078 295,930 295,733C295,656 302,587 317,527C328,482 350,427 384,362M1212,1094l-743,-832C520,220 568,191 611,174C668,152 729,141 795,141C940,141 1060,192 1155,295C1250,398 1297,542 1297,727C1297,866 1269,988 1212,1094M681,1556l133,280l236,0l-220,-280z"/>
   <glyph unicode="&#x1FF;" horiz-adv-x="1251" d="M919,999l99,128l96,-70l-107,-138C1049,862 1078,810 1093,763C1114,696 1124,619 1124,530C1124,330 1068,183 955,89C864,14 754,-24 625,-24C519,-24 425,3 344,56l-105,-135l-94,71l108,141C214,178 186,224 169,269C142,342 129,424 129,516C129,717 178,862 276,952C374,1041 489,1086 621,1086C676,1086 726,1079 772,1065C818,1051 867,1029 919,999M818,867C757,914 694,937 627,937C538,937 464,903 404,835C344,767 314,666 314,531C314,431 331,347 366,280M893,770l-449,-583C496,145 555,124 620,124C713,124 789,158 850,226C910,294 940,396 940,532C940,583 936,627 928,665C923,693 911,728 893,770M532,1194l133,280l236,0l-220,-280z"/>
   <glyph unicode="&#x387;" horiz-adv-x="569" d="M185,857l0,205l205,0l0,-205z"/>
   <glyph unicode="&#x1E80;" horiz-adv-x="1933" d="M414,0l-389,1466l199,0l223,-961C471,404 492,304 509,205C546,362 568,452 575,476l279,990l234,0l210,-742C1351,540 1389,367 1412,205C1431,298 1455,404 1485,524l230,942l195,0l-402,-1466l-187,0l-309,1117C986,1210 971,1268 966,1289C951,1222 936,1164 923,1117l-311,-1117M1115,1556l-145,0l-231,280l241,0z"/>
   <glyph unicode="&#x1E81;" horiz-adv-x="1479" d="M331,0l-325,1062l186,0l169,-613l63,-228C427,232 445,305 479,440l169,622l185,0l159,-616l53,-203l61,205l182,614l175,0l-332,-1062l-187,0l-169,636l-41,181l-215,-817M825,1194l-145,0l-231,280l241,0z"/>
   <glyph unicode="&#x1E82;" horiz-adv-x="1933" d="M414,0l-389,1466l199,0l223,-961C471,404 492,304 509,205C546,362 568,452 575,476l279,990l234,0l210,-742C1351,540 1389,367 1412,205C1431,298 1455,404 1485,524l230,942l195,0l-402,-1466l-187,0l-309,1117C986,1210 971,1268 966,1289C951,1222 936,1164 923,1117l-311,-1117M872,1556l133,280l236,0l-220,-280z"/>
   <glyph unicode="&#x1E83;" horiz-adv-x="1479" d="M331,0l-325,1062l186,0l169,-613l63,-228C427,232 445,305 479,440l169,622l185,0l159,-616l53,-203l61,205l182,614l175,0l-332,-1062l-187,0l-169,636l-41,181l-215,-817M582,1194l133,280l236,0l-220,-280z"/>
   <glyph unicode="&#x1E84;" horiz-adv-x="1933" d="M414,0l-389,1466l199,0l223,-961C471,404 492,304 509,205C546,362 568,452 575,476l279,990l234,0l210,-742C1351,540 1389,367 1412,205C1431,298 1455,404 1485,524l230,942l195,0l-402,-1466l-187,0l-309,1117C986,1210 971,1268 966,1289C951,1222 936,1164 923,1117l-311,-1117M681,1556l0,205l188,0l0,-205M1054,1556l0,205l188,0l0,-205z"/>
   <glyph unicode="&#x1E85;" horiz-adv-x="1479" d="M331,0l-325,1062l186,0l169,-613l63,-228C427,232 445,305 479,440l169,622l185,0l159,-616l53,-203l61,205l182,614l175,0l-332,-1062l-187,0l-169,636l-41,181l-215,-817M471,1270l0,205l188,0l0,-205M844,1270l0,205l188,0l0,-205z"/>
   <glyph unicode="&#x1EF2;" horiz-adv-x="1366" d="M571,0l0,621l-565,845l236,0l289,-442C584,941 634,859 680,776C724,853 777,939 840,1035l284,431l226,0l-585,-845l0,-621M798,1556l-145,0l-231,280l241,0z"/>
   <glyph unicode="&#x1EF3;" horiz-adv-x="1024" d="M127,-409l-20,169C146,-251 181,-256 210,-256C250,-256 282,-249 306,-236C330,-223 350,-204 365,-180C376,-162 395,-117 420,-46C423,-36 429,-21 436,-2l-403,1064l194,0l221,-615C477,369 502,287 525,201C546,284 570,364 599,443l227,619l180,0l-404,-1080C559,-135 525,-215 501,-259C469,-318 432,-362 391,-389C350,-417 300,-431 243,-431C208,-431 170,-424 127,-409M648,1194l-145,0l-231,280l241,0z"/>
   <glyph unicode="&#x201B;" horiz-adv-x="455" d="M331,1272l-94,0C238,1168 275,1101 347,1072l-44,-71C241,1029 198,1067 174,1114C150,1161 138,1229 138,1316l0,165l193,0z"/>
   <glyph unicode="&#x203E;" horiz-adv-x="682" d="M-31,1227l0,148l745,0l0,-148z"/>
   <glyph unicode="&#x20A4;" horiz-adv-x="1139" d="M433,614l278,0l0,-148l-282,0C407,370 353,278 268,191C319,206 366,213 409,213C467,213 530,205 599,188C712,161 792,147 837,147C883,147 945,166 1024,203l58,-165C985,-4 905,-25 844,-25C795,-25 722,-10 626,19C525,50 452,65 405,65C295,65 192,34 96,-28l-69,173C156,220 232,327 253,466l-209,0l0,148l209,0C250,635 237,684 212,762l-168,0l0,148l126,0C155,970 147,1026 147,1077C147,1206 191,1308 280,1381C368,1454 476,1491 605,1491C716,1491 812,1459 895,1396C977,1332 1027,1237 1044,1112l-179,-27C856,1160 827,1222 778,1271C729,1319 668,1343 597,1343C519,1343 457,1318 410,1268C363,1218 339,1162 339,1101C339,1062 348,999 367,910l344,0l0,-148l-310,0C418,692 429,643 433,614z"/>
   <glyph unicode="&#x212E;" horiz-adv-x="1229" d="M321,531l0,-371C401,79 500,39 619,39C788,39 920,121 1014,285l72,-43C1006,127 929,52 854,18C779,-17 701,-34 619,-34C461,-34 333,19 236,126C139,233 90,368 90,531C90,696 139,831 237,937C335,1043 462,1096 619,1096C762,1096 884,1049 985,954C1086,859 1141,718 1148,531M917,605l0,297C832,983 732,1023 617,1023C500,1023 402,982 321,901l0,-296z"/>
   <glyph unicode="&#x215B;" horiz-adv-x="1708" d="M228,-57l1101,1548l157,0l-1101,-1548M331,733l0,554C263,1233 188,1195 107,1174l0,123C144,1308 189,1332 242,1369C295,1405 337,1443 368,1484l108,0l0,-751M1225,367C1138,398 1095,452 1095,529C1095,582 1116,628 1158,665C1199,702 1266,720 1359,720C1452,720 1521,702 1568,667C1614,631 1637,584 1637,527C1637,450 1590,397 1497,367C1608,340 1664,278 1664,183C1664,112 1636,56 1580,14C1524,-28 1453,-49 1366,-49C1274,-49 1201,-28 1148,15C1094,57 1067,111 1067,178C1067,277 1120,340 1225,367M1244,519C1244,486 1256,460 1279,443C1302,426 1331,417 1365,417C1399,417 1428,426 1453,443C1477,460 1489,484 1489,514C1489,545 1477,569 1453,588C1429,606 1399,615 1363,615C1326,615 1297,605 1276,586C1255,567 1244,544 1244,519M1216,190C1216,105 1266,63 1365,63C1412,63 1449,75 1476,98C1503,121 1516,150 1516,185C1516,224 1502,254 1473,277C1444,300 1407,311 1362,311C1315,311 1279,300 1254,277C1229,254 1216,225 1216,190z"/>
   <glyph unicode="&#x215C;" horiz-adv-x="1708" d="M229,-57l1101,1548l156,0l-1100,-1548M34,929l146,15C201,869 252,832 334,832C379,832 416,845 446,870C476,895 491,926 491,964C491,1038 439,1075 335,1075l-58,-3l22,110C403,1182 455,1216 455,1284C455,1343 415,1373 334,1373C265,1373 218,1339 194,1271l-143,23C78,1368 114,1418 159,1445C204,1471 259,1484 326,1484C517,1484 612,1421 612,1296C612,1216 566,1163 474,1137C589,1108 647,1045 647,948C647,881 620,825 565,781C510,737 436,715 344,715C166,715 63,786 34,929M1226,367C1139,398 1096,452 1096,529C1096,589 1119,636 1165,670C1210,703 1275,720 1359,720C1452,720 1522,702 1569,667C1615,631 1638,584 1638,527C1638,452 1591,399 1497,367C1609,340 1665,278 1665,183C1665,110 1637,54 1580,13C1523,-28 1452,-49 1367,-49C1277,-49 1205,-28 1150,13C1095,54 1068,109 1068,178C1068,277 1121,340 1226,367M1245,519C1245,486 1257,460 1280,443C1303,426 1332,417 1366,417C1399,417 1427,426 1452,443C1477,460 1489,483 1489,514C1489,545 1477,569 1453,588C1429,606 1399,615 1363,615C1327,615 1298,605 1277,586C1256,567 1245,544 1245,519M1217,190C1217,105 1267,63 1366,63C1414,63 1451,75 1477,98C1503,121 1516,150 1516,185C1516,224 1502,254 1474,277C1445,300 1408,311 1363,311C1316,311 1280,300 1255,277C1230,254 1217,225 1217,190z"/>
   </font>
</defs>
</svg>
