<?xml version="1.0" encoding="UTF-8" standalone="no"?>
<!-- Created with Inkscape (http://www.inkscape.org/) -->
<svg
   xmlns:svg="http://www.w3.org/2000/svg"
   xmlns="http://www.w3.org/2000/svg"
   xmlns:xlink="http://www.w3.org/1999/xlink"
   version="1.0"
   width="1692.2184"
   height="749.56525"
   viewBox="0 0 21000 29700"
   id="svg2">
  <defs
     id="defs4">
    <linearGradient
       id="linearGradient8269">
      <stop
         style="stop-color:#e6e6e6;stop-opacity:1"
         offset="0"
         id="stop8271" />
      <stop
         style="stop-color:#c9c6da;stop-opacity:1"
         offset="1"
         id="stop8273" />
    </linearGradient>
    <linearGradient
       id="linearGradient7292">
      <stop
         style="stop-color:#f3f3f3;stop-opacity:1"
         offset="0"
         id="stop7294" />
      <stop
         style="stop-color:#d0ffd2;stop-opacity:1"
         offset="1"
         id="stop7296" />
    </linearGradient>
    <font
       horiz-adv-x="2048"
       id="EmbeddedFont_1">
      <font-face
         id="font-face7"
         descent="450"
         ascent="1852"
         units-per-em="2048"
         font-family="Arial embedded" />
      <missing-glyph
         id="missing-glyph9"
         horiz-adv-x="2048">
        <path
           id="path11"
           d="M 0,2048 L 2047,2048 2047,1 0,1 0,2048 Z"
           style="fill:none;stroke:black;stroke-width:33" />
      </missing-glyph>
      <glyph
         id="glyph13"
         horiz-adv-x="979"
         unicode=" " />
      <glyph
         id="glyph15"
         horiz-adv-x="953"
         unicode="+">
        <path
           id="path17"
           d="M 513,237 L 513,639 114,639 114,807 513,807 513,1206 683,1206 683,807 1082,807 1082,639 683,639 683,237 513,237 Z" />
      </glyph>
      <glyph
         id="glyph19"
         horiz-adv-x="212"
         unicode=",">
        <path
           id="path21"
           d="M 182,0 C 182,0 182,0 182,205 182,205 182,205 387,205 387,205 387,205 387,0 387,-75 374,-136 347,-182 320,-229 278,-265 220,-290 220,-290 220,-290 170,-213 208,-196 236,-172 254,-139 272,-107 282,-61 284,0 284,0 284,0 182,0 Z" />
      </glyph>
      <glyph
         id="glyph23"
         horiz-adv-x="557"
         unicode="-">
        <path
           id="path25"
           d="M 65,440 L 65,621 618,621 618,440 65,440 Z" />
      </glyph>
      <glyph
         id="glyph27"
         horiz-adv-x="954"
         unicode="0">
        <path
           id="path29"
           d="M 85,723 C 85,896 103,1036 139,1142 174,1247 227,1329 298,1386 368,1443 456,1472 563,1472 642,1472 711,1456 770,1425 829,1393 878,1347 917,1288 956,1228 986,1155 1008,1070 1030,984 1041,868 1041,723 1041,551 1023,412 988,307 953,201 900,119 830,62 759,4 670,-25 563,-25 422,-25 311,26 230,127 133,249 85,448 85,723 Z M 270,723 C 270,482 298,322 355,243 411,163 480,123 563,123 646,123 715,163 772,243 828,323 856,483 856,723 856,964 828,1125 772,1204 715,1283 645,1323 561,1323 478,1323 412,1288 363,1218 301,1129 270,964 270,723 Z" />
      </glyph>
      <glyph
         id="glyph31"
         horiz-adv-x="530"
         unicode="1">
        <path
           id="path33"
           d="M 763,0 C 763,0 763,0 583,0 583,0 583,0 583,1147 540,1106 483,1064 413,1023 342,982 279,951 223,930 223,930 223,930 223,1104 324,1151 412,1209 487,1276 562,1343 616,1409 647,1472 647,1472 647,1472 763,1472 763,1472 763,1472 763,0 Z" />
      </glyph>
      <glyph
         id="glyph35"
         horiz-adv-x="953"
         unicode="2">
        <path
           id="path37"
           d="M 1031,173 C 1031,173 1031,173 1031,0 1031,0 1031,0 62,0 61,43 68,85 83,125 108,191 147,256 202,320 256,384 334,458 437,542 596,673 704,776 760,853 816,929 844,1001 844,1069 844,1140 819,1201 768,1250 717,1299 650,1323 568,1323 481,1323 412,1297 360,1245 308,1193 282,1121 281,1029 281,1029 281,1029 96,1048 109,1186 156,1291 239,1364 322,1436 433,1472 572,1472 713,1472 824,1433 906,1355 988,1277 1029,1180 1029,1065 1029,1006 1017,949 993,892 969,835 929,776 874,713 818,650 725,564 596,455 488,364 419,303 388,271 357,238 332,206 312,173 312,173 312,173 1031,173 Z" />
      </glyph>
      <glyph
         id="glyph39"
         horiz-adv-x="954"
         unicode="3">
        <path
           id="path41"
           d="M 86,387 C 86,387 86,387 266,411 287,309 322,236 372,191 421,146 482,123 553,123 638,123 709,152 768,211 826,270 855,342 855,429 855,512 828,580 774,634 720,687 651,714 568,714 534,714 492,707 441,694 441,694 441,694 461,852 473,851 483,850 490,850 567,850 636,870 697,910 758,950 789,1012 789,1095 789,1161 767,1216 722,1259 677,1302 620,1324 549,1324 479,1324 421,1302 374,1258 327,1214 297,1148 284,1060 284,1060 284,1060 104,1092 126,1213 176,1306 254,1373 332,1439 429,1472 545,1472 625,1472 699,1455 766,1421 833,1386 885,1339 921,1280 956,1221 974,1158 974,1091 974,1028 957,970 923,918 889,866 839,825 772,794 859,774 926,733 974,670 1022,607 1046,528 1046,433 1046,305 999,197 906,108 813,19 695,-26 552,-26 423,-26 317,12 232,89 147,166 98,265 86,387 Z" />
      </glyph>
      <glyph
         id="glyph43"
         horiz-adv-x="1007"
         unicode="4">
        <path
           id="path45"
           d="M 662,0 L 662,351 26,351 26,516 695,1466 842,1466 842,516 1040,516 1040,351 842,351 842,0 662,0 Z M 662,516 L 662,1177 203,516 662,516 Z" />
      </glyph>
      <glyph
         id="glyph47"
         horiz-adv-x="954"
         unicode="5">
        <path
           id="path49"
           d="M 85,384 C 85,384 85,384 274,400 288,308 321,239 372,193 423,146 484,123 556,123 643,123 716,156 776,221 836,286 866,373 866,481 866,584 837,665 780,724 722,783 646,813 553,813 495,813 443,800 396,774 349,747 313,713 286,671 286,671 286,671 117,693 117,693 117,693 259,1446 259,1446 259,1446 988,1446 988,1446 988,1446 988,1274 988,1274 988,1274 403,1274 403,1274 403,1274 324,880 412,941 504,972 601,972 729,972 837,928 925,839 1013,750 1057,636 1057,497 1057,364 1018,250 941,153 847,34 719,-25 556,-25 423,-25 314,12 230,87 145,162 97,261 85,384 Z" />
      </glyph>
      <glyph
         id="glyph51"
         horiz-adv-x="954"
         unicode="7">
        <path
           id="path53"
           d="M 97,1274 C 97,1274 97,1274 97,1447 97,1447 97,1447 1046,1447 1046,1447 1046,1447 1046,1307 953,1208 860,1076 769,911 677,746 606,577 556,403 520,280 497,146 487,0 487,0 487,0 302,0 304,115 327,255 370,418 413,581 476,739 557,891 638,1042 724,1170 815,1274 815,1274 815,1274 97,1274 Z" />
      </glyph>
      <glyph
         id="glyph55"
         horiz-adv-x="954"
         unicode="8">
        <path
           id="path57"
           d="M 362,795 C 287,822 232,861 196,912 160,963 142,1023 142,1094 142,1201 180,1290 257,1363 334,1436 436,1472 563,1472 691,1472 794,1435 872,1361 950,1286 989,1196 989,1089 989,1021 971,962 936,912 900,861 846,822 773,795 863,766 932,718 979,653 1026,588 1049,510 1049,419 1049,294 1005,188 916,103 827,18 711,-25 566,-25 421,-25 305,18 216,104 127,189 83,296 83,424 83,519 107,599 156,664 204,728 273,772 362,795 Z M 326,1100 C 326,1031 348,974 393,930 438,886 496,864 567,864 636,864 693,886 738,930 782,973 804,1027 804,1090 804,1156 781,1212 736,1257 690,1302 633,1324 565,1324 496,1324 439,1302 394,1258 349,1214 326,1161 326,1100 Z M 268,423 C 268,372 280,322 305,274 329,226 365,189 413,163 461,136 513,123 568,123 654,123 725,151 781,206 837,261 865,332 865,417 865,504 836,575 779,632 721,689 649,717 562,717 477,717 407,689 352,633 296,577 268,507 268,423 Z" />
      </glyph>
      <glyph
         id="glyph59"
         horiz-adv-x="954"
         unicode="9">
        <path
           id="path61"
           d="M 112,339 C 112,339 112,339 285,355 300,274 328,215 369,178 410,141 463,123 528,123 583,123 632,136 674,161 715,186 749,220 776,263 803,305 825,362 843,434 861,506 870,579 870,654 870,662 870,674 869,690 833,633 784,586 722,551 659,515 592,497 519,497 398,497 295,541 211,629 127,717 85,833 85,977 85,1126 129,1245 217,1336 304,1427 414,1472 546,1472 641,1472 729,1446 808,1395 887,1344 947,1271 988,1176 1029,1081 1049,943 1049,763 1049,576 1029,427 988,316 947,205 887,120 807,62 726,4 632,-25 524,-25 409,-25 316,7 243,71 170,134 127,224 112,339 Z M 849,986 C 849,1089 822,1171 767,1232 712,1293 645,1323 568,1323 488,1323 418,1290 359,1225 300,1160 270,1075 270,971 270,878 298,802 355,744 411,685 480,656 563,656 646,656 715,685 769,744 822,802 849,883 849,986 Z" />
      </glyph>
      <glyph
         id="glyph63"
         horiz-adv-x="1376"
         unicode="A">
        <path
           id="path65"
           d="M -3,0 L 560,1466 769,1466 1369,0 1148,0 977,444 364,444 203,0 -3,0 Z M 420,602 C 420,602 420,602 917,602 917,602 917,602 764,1008 717,1131 683,1233 660,1312 641,1218 615,1125 581,1032 581,1032 581,1032 420,602 Z" />
      </glyph>
      <glyph
         id="glyph67"
         horiz-adv-x="1298"
         unicode="C">
        <path
           id="path69"
           d="M 1204,514 C 1204,514 1204,514 1398,465 1357,306 1284,184 1179,101 1073,17 944,-25 791,-25 633,-25 505,7 406,72 307,136 231,229 180,351 128,473 102,604 102,744 102,897 131,1030 190,1144 248,1257 331,1344 439,1403 546,1462 665,1491 794,1491 941,1491 1064,1454 1164,1379 1264,1304 1334,1199 1373,1064 1373,1064 1373,1064 1182,1019 1148,1126 1099,1203 1034,1252 969,1301 888,1325 790,1325 677,1325 583,1298 508,1244 432,1190 379,1118 348,1027 317,936 302,842 302,745 302,620 320,512 357,419 393,326 449,256 526,210 603,164 686,141 775,141 884,141 976,172 1051,235 1126,298 1177,391 1204,514 Z" />
      </glyph>
      <glyph
         id="glyph71"
         horiz-adv-x="1059"
         unicode="E">
        <path
           id="path73"
           d="M 162,0 L 162,1466 1222,1466 1222,1293 356,1293 356,844 1167,844 1167,672 356,672 356,173 1256,173 1256,0 162,0 Z" />
      </glyph>
      <glyph
         id="glyph75"
         horiz-adv-x="1113"
         unicode="P">
        <path
           id="path77"
           d="M 158,0 C 158,0 158,0 158,1466 158,1466 158,1466 711,1466 808,1466 883,1461 934,1452 1006,1440 1066,1417 1115,1384 1164,1350 1203,1303 1233,1242 1262,1181 1277,1115 1277,1042 1277,917 1237,812 1158,726 1079,639 935,596 728,596 728,596 728,596 352,596 352,596 352,596 352,0 352,0 352,0 158,0 Z M 352,769 C 352,769 352,769 731,769 856,769 945,792 998,839 1051,886 1077,951 1077,1036 1077,1097 1062,1150 1031,1194 1000,1237 959,1266 908,1280 875,1289 815,1293 727,1293 727,1293 727,1293 352,1293 352,1293 352,1293 352,769 Z" />
      </glyph>
      <glyph
         id="glyph79"
         horiz-adv-x="1139"
         unicode="S">
        <path
           id="path81"
           d="M 92,471 C 92,471 92,471 275,487 284,414 304,354 336,307 367,260 416,222 483,193 550,164 625,149 708,149 782,149 847,160 904,182 961,204 1003,234 1031,273 1058,311 1072,353 1072,398 1072,444 1059,484 1032,519 1005,553 961,582 900,605 861,620 774,644 639,677 504,709 410,739 356,768 286,805 234,850 200,905 165,959 148,1020 148,1087 148,1161 169,1230 211,1295 253,1359 314,1408 395,1441 476,1474 565,1491 664,1491 773,1491 869,1474 952,1439 1035,1404 1098,1352 1143,1284 1188,1216 1212,1139 1215,1053 1215,1053 1215,1053 1029,1039 1019,1132 985,1202 928,1249 870,1296 785,1320 672,1320 555,1320 469,1299 416,1256 362,1213 335,1161 335,1100 335,1047 354,1004 392,970 429,936 527,901 685,866 842,830 950,799 1009,772 1094,733 1157,683 1198,623 1239,562 1259,493 1259,414 1259,336 1237,263 1192,194 1147,125 1083,71 1000,33 916,-6 822,-25 717,-25 584,-25 473,-6 384,33 294,72 224,130 173,208 122,285 95,373 92,471 Z" />
      </glyph>
      <glyph
         id="glyph83"
         horiz-adv-x="980"
         unicode="a">
        <path
           id="path85"
           d="M 828,131 C 761,74 697,34 636,11 574,-12 508,-24 437,-24 320,-24 231,5 168,62 105,119 74,191 74,280 74,332 86,380 110,423 133,466 164,500 203,526 241,552 284,572 332,585 367,594 421,603 492,612 637,629 744,650 813,674 814,699 814,714 814,721 814,794 797,846 763,876 717,917 649,937 558,937 473,937 411,922 371,893 330,863 300,810 281,735 281,735 281,735 105,759 121,834 147,895 184,942 221,988 274,1024 343,1049 412,1074 493,1086 584,1086 675,1086 748,1075 805,1054 862,1033 903,1006 930,974 957,941 975,900 986,851 992,820 995,765 995,685 995,685 995,685 995,445 995,278 999,172 1007,128 1014,83 1029,41 1052,0 1052,0 1052,0 864,0 845,37 833,81 828,131 Z M 813,533 C 748,506 650,484 519,465 445,454 393,442 362,429 331,416 308,396 291,371 274,345 266,316 266,285 266,237 284,197 321,165 357,133 410,117 480,117 549,117 611,132 665,163 719,193 759,234 784,287 803,328 813,388 813,467 813,467 813,467 813,533 Z" />
      </glyph>
      <glyph
         id="glyph87"
         horiz-adv-x="901"
         unicode="b">
        <path
           id="path89"
           d="M 301,0 C 301,0 301,0 134,0 134,0 134,0 134,1466 134,1466 134,1466 314,1466 314,1466 314,1466 314,943 390,1038 487,1086 605,1086 670,1086 732,1073 791,1047 849,1020 897,983 935,936 972,888 1002,830 1023,763 1044,696 1055,624 1055,547 1055,365 1010,224 920,125 830,26 722,-24 596,-24 471,-24 372,28 301,133 301,133 301,133 301,0 Z M 299,539 C 299,412 316,320 351,263 408,170 484,124 581,124 660,124 728,158 785,227 842,295 871,397 871,532 871,671 844,773 789,839 734,905 667,938 589,938 510,938 442,904 385,836 328,767 299,668 299,539 Z" />
      </glyph>
      <glyph
         id="glyph91"
         horiz-adv-x="927"
         unicode="c">
        <path
           id="path93"
           d="M 828,389 C 828,389 828,389 1005,366 986,244 936,149 857,80 777,11 679,-24 563,-24 418,-24 301,24 213,119 124,214 80,350 80,527 80,642 99,742 137,828 175,914 233,979 311,1022 388,1065 473,1086 564,1086 679,1086 774,1057 847,999 920,940 967,857 988,750 988,750 988,750 813,723 796,794 767,848 725,884 682,920 631,938 571,938 480,938 407,906 350,841 293,776 265,673 265,532 265,389 292,286 347,221 402,156 473,124 561,124 632,124 691,146 738,189 785,232 815,299 828,389 Z" />
      </glyph>
      <glyph
         id="glyph95"
         horiz-adv-x="927"
         unicode="d">
        <path
           id="path97"
           d="M 824,0 C 824,0 824,0 824,134 757,29 658,-24 527,-24 442,-24 365,-1 294,46 223,93 168,158 129,242 90,325 70,421 70,530 70,636 88,732 123,819 158,905 211,971 282,1017 353,1063 432,1086 519,1086 583,1086 640,1073 690,1046 740,1019 781,983 812,940 812,940 812,940 812,1466 812,1466 812,1466 991,1466 991,1466 991,1466 991,0 991,0 991,0 824,0 Z M 255,530 C 255,394 284,292 341,225 398,158 466,124 544,124 623,124 690,156 745,221 800,285 827,383 827,515 827,660 799,767 743,835 687,903 618,937 536,937 456,937 389,904 336,839 282,774 255,671 255,530 Z" />
      </glyph>
      <glyph
         id="glyph99"
         horiz-adv-x="980"
         unicode="e">
        <path
           id="path101"
           d="M 862,342 C 862,342 862,342 1048,319 1019,210 964,126 885,66 806,6 704,-24 581,-24 426,-24 303,24 212,120 121,215 75,349 75,522 75,701 121,839 213,938 305,1037 424,1086 571,1086 713,1086 829,1038 919,941 1009,844 1054,708 1054,533 1054,522 1054,506 1053,485 1053,485 1053,485 261,485 268,368 301,279 360,217 419,155 493,124 582,124 648,124 704,141 751,176 798,211 835,266 862,342 Z M 271,633 C 271,633 271,633 864,633 856,722 833,789 796,834 739,903 664,938 573,938 490,938 421,910 365,855 308,800 277,726 271,633 Z" />
      </glyph>
      <glyph
         id="glyph103"
         horiz-adv-x="610"
         unicode="f">
        <path
           id="path105"
           d="M 178,0 C 178,0 178,0 178,922 178,922 178,922 19,922 19,922 19,922 19,1062 19,1062 19,1062 178,1062 178,1062 178,1062 178,1175 178,1246 184,1299 197,1334 214,1381 245,1419 289,1448 332,1477 393,1491 472,1491 523,1491 579,1485 640,1473 640,1473 640,1473 613,1316 576,1323 540,1326 507,1326 452,1326 414,1314 391,1291 368,1268 357,1224 357,1160 357,1160 357,1160 357,1062 357,1062 357,1062 564,1062 564,1062 564,1062 564,922 564,922 564,922 357,922 357,922 357,922 357,0 357,0 357,0 178,0 Z" />
      </glyph>
      <glyph
         id="glyph107"
         horiz-adv-x="848"
         unicode="h">
        <path
           id="path109"
           d="M 135,0 C 135,0 135,0 135,1466 135,1466 135,1466 315,1466 315,1466 315,1466 315,940 399,1037 505,1086 633,1086 712,1086 780,1071 838,1040 896,1009 938,966 963,911 988,856 1000,777 1000,673 1000,673 1000,673 1000,0 1000,0 1000,0 820,0 820,0 820,0 820,673 820,763 801,829 762,870 723,911 667,931 596,931 543,931 493,917 446,890 399,862 365,824 345,777 325,730 315,664 315,581 315,581 315,581 315,0 315,0 315,0 135,0 Z" />
      </glyph>
      <glyph
         id="glyph111"
         horiz-adv-x="160"
         unicode="i">
        <path
           id="path113"
           d="M 136,1259 L 136,1466 316,1466 316,1259 136,1259 Z M 136,0 L 136,1062 316,1062 316,0 136,0 Z" />
      </glyph>
      <glyph
         id="glyph115"
         horiz-adv-x="186"
         unicode="l">
        <path
           id="path117"
           d="M 131,0 L 131,1466 311,1466 311,0 131,0 Z" />
      </glyph>
      <glyph
         id="glyph119"
         horiz-adv-x="1457"
         unicode="m">
        <path
           id="path121"
           d="M 135,0 C 135,0 135,0 135,1062 135,1062 135,1062 296,1062 296,1062 296,1062 296,913 329,965 374,1007 429,1039 484,1070 547,1086 618,1086 697,1086 761,1070 812,1037 862,1004 897,959 918,900 1002,1024 1111,1086 1246,1086 1351,1086 1432,1057 1489,999 1546,940 1574,850 1574,729 1574,729 1574,729 1574,0 1574,0 1574,0 1395,0 1395,0 1395,0 1395,669 1395,741 1389,793 1378,825 1366,856 1345,882 1314,901 1283,920 1247,930 1206,930 1131,930 1069,905 1020,856 971,806 946,726 946,617 946,617 946,617 946,0 946,0 946,0 766,0 766,0 766,0 766,690 766,770 751,830 722,870 693,910 645,930 578,930 527,930 481,917 438,890 395,863 363,824 344,773 325,722 315,648 315,551 315,551 315,551 315,0 315,0 315,0 135,0 Z" />
      </glyph>
      <glyph
         id="glyph123"
         horiz-adv-x="848"
         unicode="n">
        <path
           id="path125"
           d="M 135,0 C 135,0 135,0 135,1062 135,1062 135,1062 297,1062 297,1062 297,1062 297,911 375,1028 488,1086 635,1086 699,1086 758,1075 812,1052 865,1029 905,998 932,961 959,924 977,879 988,828 995,795 998,736 998,653 998,653 998,653 998,0 998,0 998,0 818,0 818,0 818,0 818,646 818,719 811,774 797,811 783,847 758,876 723,898 687,919 645,930 597,930 520,930 454,906 399,857 343,808 315,716 315,580 315,580 315,580 315,0 315,0 315,0 135,0 Z" />
      </glyph>
      <glyph
         id="glyph127"
         horiz-adv-x="980"
         unicode="o">
        <path
           id="path129"
           d="M 68,531 C 68,728 123,873 232,968 323,1047 435,1086 566,1086 712,1086 831,1038 924,943 1017,847 1063,715 1063,546 1063,409 1043,302 1002,224 961,145 901,84 823,41 744,-2 659,-24 566,-24 417,-24 297,24 206,119 114,214 68,352 68,531 Z M 253,531 C 253,395 283,293 342,226 401,158 476,124 566,124 655,124 730,158 789,226 848,294 878,398 878,537 878,668 848,768 789,836 729,903 655,937 566,937 476,937 401,903 342,836 283,769 253,667 253,531 Z" />
      </glyph>
      <glyph
         id="glyph131"
         horiz-adv-x="557"
         unicode="r">
        <path
           id="path133"
           d="M 133,0 C 133,0 133,0 133,1062 133,1062 133,1062 295,1062 295,1062 295,1062 295,901 336,976 375,1026 410,1050 445,1074 483,1086 525,1086 586,1086 647,1067 710,1028 710,1028 710,1028 648,861 604,887 560,900 516,900 477,900 441,888 410,865 379,841 356,808 343,766 323,702 313,632 313,556 313,556 313,556 313,0 313,0 313,0 133,0 Z" />
      </glyph>
      <glyph
         id="glyph135"
         horiz-adv-x="874"
         unicode="s">
        <path
           id="path137"
           d="M 63,317 C 63,317 63,317 241,345 251,274 279,219 325,181 370,143 434,124 516,124 599,124 660,141 700,175 740,208 760,248 760,293 760,334 742,366 707,389 682,405 621,425 523,450 391,483 300,512 249,537 198,561 159,595 133,638 106,681 93,728 93,780 93,827 104,871 126,912 147,952 177,985 214,1012 242,1033 280,1050 329,1065 377,1079 429,1086 484,1086 567,1086 641,1074 704,1050 767,1026 813,994 843,953 873,912 894,857 905,788 905,788 905,788 729,764 721,819 698,861 660,892 621,923 567,938 497,938 414,938 355,924 320,897 285,870 267,838 267,801 267,778 274,757 289,738 304,719 327,703 358,690 376,683 429,668 517,644 644,610 733,582 784,561 834,539 873,507 902,466 931,425 945,373 945,312 945,252 928,196 893,143 858,90 807,49 741,20 675,-9 600,-24 517,-24 379,-24 274,5 202,62 129,119 83,204 63,317 Z" />
      </glyph>
      <glyph
         id="glyph139"
         horiz-adv-x="504"
         unicode="t">
        <path
           id="path141"
           d="M 528,161 C 528,161 528,161 554,2 503,-9 458,-14 418,-14 353,-14 302,-4 266,17 230,38 205,65 190,99 175,132 168,203 168,311 168,311 168,311 168,922 168,922 168,922 36,922 36,922 36,922 36,1062 36,1062 36,1062 168,1062 168,1062 168,1062 168,1325 168,1325 168,1325 347,1433 347,1433 347,1433 347,1062 347,1062 347,1062 528,1062 528,1062 528,1062 528,922 528,922 528,922 347,922 347,922 347,922 347,301 347,250 350,217 357,202 363,187 373,176 388,167 402,158 422,154 449,154 469,154 495,156 528,161 Z" />
      </glyph>
      <glyph
         id="glyph143"
         horiz-adv-x="848"
         unicode="u">
        <path
           id="path145"
           d="M 831,0 C 831,0 831,0 831,156 748,36 636,-24 494,-24 431,-24 373,-12 319,12 264,36 224,66 198,103 171,139 153,183 142,236 135,271 131,327 131,404 131,404 131,404 131,1062 131,1062 131,1062 311,1062 311,1062 311,1062 311,473 311,379 315,316 322,283 333,236 357,199 394,172 431,145 476,131 530,131 584,131 635,145 682,173 729,200 763,238 783,286 802,333 812,402 812,493 812,493 812,493 812,1062 812,1062 812,1062 992,1062 992,1062 992,1062 992,0 992,0 992,0 831,0 Z" />
      </glyph>
      <glyph
         id="glyph147"
         horiz-adv-x="954"
         unicode="v">
        <path
           id="path149"
           d="M 430,0 C 430,0 430,0 26,1062 26,1062 26,1062 216,1062 216,1062 216,1062 444,426 469,357 491,286 512,212 528,268 550,335 579,414 579,414 579,414 815,1062 815,1062 815,1062 1000,1062 1000,1062 1000,1062 598,0 598,0 598,0 430,0 Z" />
      </glyph>
      <glyph
         id="glyph151"
         horiz-adv-x="928"
         unicode="y">
        <path
           id="path153"
           d="M 127,-409 C 127,-409 127,-409 107,-240 146,-251 181,-256 210,-256 250,-256 282,-249 306,-236 330,-223 350,-204 365,-180 376,-162 395,-117 420,-46 423,-36 429,-21 436,-2 436,-2 436,-2 33,1062 33,1062 33,1062 227,1062 227,1062 227,1062 448,447 477,369 502,287 525,201 546,284 570,364 599,443 599,443 599,443 826,1062 826,1062 826,1062 1006,1062 1006,1062 1006,1062 602,-18 559,-135 525,-215 501,-259 469,-318 432,-362 391,-389 350,-417 300,-431 243,-431 208,-431 170,-424 127,-409 Z" />
      </glyph>
    </font>
</defs>
</svg>
